<?xml version="1.0" standalone="no"?>
<!DOCTYPE svg PUBLIC "-//W3C//DTD SVG 1.1//EN" "http://www.w3.org/Graphics/SVG/1.1/DTD/svg11.dtd" >
<svg xmlns="http://www.w3.org/2000/svg" xmlns:xlink="http://www.w3.org/1999/xlink" version="1.1">
<metadata>
Created by FontForge 20170731 at Sat Mar 24 19:22:10 2018
 By Aleksey,,,
(c) 1992, 1994, 1997, 2000, 2004 Adobe Systems Incorporated. All rights reserved.
</metadata>
<defs>
<font id="MyriadGEOMtavruliBold" horiz-adv-x="300" >
  <font-face 
    font-family="MyriadGEOMtavruliBold"
    font-weight="700"
    font-stretch="normal"
    units-per-em="1000"
    panose-1="2 11 5 3 3 4 3 2 2 4"
    ascent="750"
    descent="-250"
    x-height="489"
    cap-height="674"
    bbox="-163 -250 1256 989"
    underline-thickness="50"
    underline-position="-250"
    unicode-range="U+0020-FB02"
  />
<missing-glyph horiz-adv-x="500" 
d="M500 700v-700h-500v700h500zM80 650l170 -255l170 255h-340zM220 350l-170 255v-510zM450 605l-170 -255l170 -255v510zM250 305l-170 -255h340z" />
    <glyph glyph-name="f_f" unicode="ff" horiz-adv-x="650" 
d="M387 377h-156v-377h-153v377h-64v112h64v10q0 101 56 157q54 54 150 54q35 0 65 -12l-21 -112q-21 7 -39 7q-59 0 -59 -86v-18h157v19q0 48 15.5 92t46.5 72q27 25 62.5 37t72.5 12q46 0 81 -10l-6 -117q-25 7 -50 7q-36 0 -53.5 -24t-17.5 -63v-25h98v-112h-97v-377
h-152v377z" />
    <glyph glyph-name="f_f_i" unicode="ffi" horiz-adv-x="899" 
d="M649 601q-57 0 -82.5 -25.5t-25.5 -69.5v-17h298v-489h-153v377h-144v-377h-152v377h-159v-377h-153v377h-64v112h64v11q0 46 15.5 87t47.5 71q55 52 147 52q42 0 85 -16l-34 -110q-22 10 -43 10q-28 0 -45 -17q-21 -22 -21 -71v-17h160v21q0 99 70 155t185 56
q37 0 75 -7t62 -19l-33 -114q-44 20 -100 20z" />
    <glyph glyph-name="f_f_l" unicode="ffl" horiz-adv-x="899" 
d="M298 593q-31 0 -46 -17q-22 -22 -22 -70v-17h160v22q0 42 19.5 84.5t54.5 70.5q69 55 186 55q115 0 189 -41v-680h-153v598q-18 10 -57 10q-44 0 -66 -27.5t-22 -71.5v-20h89v-112h-88v-377h-152v377h-159v-377h-153v377h-64v112h64v9q0 49 15.5 89t46.5 68
q28 27 69.5 41t89.5 14q39 0 76 -13l-32 -112q-21 8 -45 8z" />
    <glyph glyph-name="f_i" unicode="fi" horiz-adv-x="588" 
d="M78 377h-64v112h64v21q0 99 70 155t186 56q40 0 81 -8.5t63 -21.5l-29 -115q-46 25 -111 25q-57 0 -82.5 -25.5t-25.5 -69.5v-17h297v-489h-152v377h-144v-377h-153v377z" />
    <glyph glyph-name="f_l" unicode="fl" horiz-adv-x="588" 
d="M78 377h-64v112h64v22q0 42 20 84.5t55 70.5q68 55 186 55q114 0 188 -41v-680h-152v598q-20 10 -58 10q-44 0 -65.5 -27.5t-21.5 -71.5v-20h88v-112h-87v-377h-153v377z" />
    <glyph glyph-name=".notdef" horiz-adv-x="500" 
d="M500 700v-700h-500v700h500zM80 650l170 -255l170 255h-340zM220 350l-170 255v-510zM450 605l-170 -255l170 -255v510zM250 305l-170 -255h340z" />
    <glyph glyph-name=".null" horiz-adv-x="0" 
 />
    <glyph glyph-name="nonmarkingreturn" horiz-adv-x="333" 
 />
    <glyph glyph-name="space" unicode=" " horiz-adv-x="202" 
 />
    <glyph glyph-name="exclam" unicode="!" horiz-adv-x="268" 
d="M54 674h159l-22 -453h-114zM69 15q-25 26 -25 65q0 40 25 65.5t65 25.5q39 0 63.5 -25.5t25.5 -65.5q0 -40 -24.5 -65.5t-64.5 -25.5t-65 26z" />
    <glyph glyph-name="quotedbl" unicode="&#x22;" horiz-adv-x="397" 
d="M147 414h-89l-23 271h135zM339 414h-89l-23 271h135z" />
    <glyph glyph-name="numbersign" unicode="#" horiz-adv-x="550" 
d="M118 179h-81v92h97l16 112h-85v93h99l25 174h89l-25 -174h91l26 174h89l-26 -174h80v-93h-94l-16 -112h83v-92h-98l-25 -179h-90l25 179h-91l-25 -179h-90zM330 383h-91l-16 -112h91z" />
    <glyph glyph-name="dollar" unicode="$" horiz-adv-x="555" 
d="M225 8q-49 2 -95 14t-75 29l30 117q80 -44 166 -44q44 0 70 16.5t26 45.5q0 28 -25 48t-81 39q-88 29 -134 72t-46 111q0 67 45 114.5t124 63.5v95h98v-88q85 -4 145 -33l-29 -113q-38 16 -68 25t-76 9q-45 0 -65.5 -16t-20.5 -40t27 -42.5t93 -43.5q89 -31 128 -75
t39 -112q0 -69 -47 -119.5t-131 -65.5v-102h-98v95z" />
    <glyph glyph-name="percent" unicode="%" horiz-adv-x="880" 
d="M337.5 607.5q46.5 -53.5 46.5 -139.5q0 -65 -25 -112t-66 -71t-89 -24q-50 0 -90 24t-63.5 68.5t-23.5 103.5q0 58 22.5 104.5t64 73t95.5 26.5q82 0 128.5 -53.5zM585 661h82l-374 -672h-81zM157 545.5q-17 -32.5 -17 -84.5q0 -53 17.5 -85t49.5 -32t48 30.5t16 86.5
q0 53 -16 85t-49 32q-32 0 -49 -32.5zM805.5 337.5q46.5 -53.5 46.5 -139.5q0 -65 -25 -112t-66 -71t-89 -24q-49 0 -89.5 24t-64 68.5t-23.5 103.5q0 58 22.5 104.5t64 73t95.5 26.5q82 0 128.5 -53.5zM625.5 274.5q-16.5 -33.5 -16.5 -87.5q0 -51 17.5 -82t48.5 -31
q32 0 48 30.5t16 86.5q0 53 -15.5 85t-48.5 32t-49.5 -33.5z" />
    <glyph glyph-name="ampersand" unicode="&#x26;" horiz-adv-x="678" 
d="M451 48q-76 -59 -185 -59q-78 0 -131 27t-78.5 71t-25.5 93q0 64 34 113t94 80v4q-23 25 -37 60t-14 70q0 44 23 85t69 67t110 26q80 0 131.5 -43.5t51.5 -114.5q0 -106 -133 -173l-1 -4l46 -51q40 -46 67 -75q20 31 35 74.5t22 89.5h136q-29 -163 -112 -256
q75 -85 119 -132h-177zM260.5 569.5q-16.5 -20.5 -16.5 -48.5q0 -25 11.5 -48t34.5 -49q39 27 56.5 49t17.5 50q0 27 -15.5 47t-43.5 20t-44.5 -20.5zM340 108.5q24 9.5 40 24.5q-50 50 -152 165q-53 -38 -53 -93q0 -44 31 -75t81 -31q29 0 53 9.5z" />
    <glyph glyph-name="quotesingle" unicode="'" horiz-adv-x="205" 
d="M147 414h-89l-23 271h135z" />
    <glyph glyph-name="parenleft" unicode="(" horiz-adv-x="314" 
d="M206.5 514.5q-27.5 -101.5 -27.5 -228.5q0 -124 27.5 -225t73.5 -177h-106q-48 69 -81 170t-33 233q1 133 33.5 233.5t80.5 170.5h106q-46 -75 -73.5 -176.5z" />
    <glyph glyph-name="parenright" unicode=")" horiz-adv-x="314" 
d="M108 62q28 102 28 226q0 125 -27.5 226t-73.5 177h106q48 -70 81 -170.5t33 -232.5q-1 -133 -33.5 -233t-80.5 -171h-106q45 76 73 178z" />
    <glyph glyph-name="asterisk" unicode="*" horiz-adv-x="454" 
d="M264 508l1 -3l159 32v-101l-160 28l-1 -3l109 -123l-89 -52l-57 155l-2 -1l-58 -154l-86 52l107 125v2l-157 -29v101l155 -31l1 2l-106 126l89 51l56 -153h2l57 153l88 -50z" />
    <glyph glyph-name="plus" unicode="+" horiz-adv-x="596" 
d="M347 314h209v-94h-209v-220h-98v220h-209v94h209v218h98v-218z" />
    <glyph glyph-name="comma" unicode="," horiz-adv-x="260" 
d="M74 165l155 10q-25 -79 -58 -153.5t-68 -131.5l-101 -9q51 146 72 284z" />
    <glyph glyph-name="hyphen" unicode="-" horiz-adv-x="322" 
d="M292 212h-262v101h262v-101z" />
    <glyph glyph-name="period" unicode="." horiz-adv-x="260" 
d="M75 15q-25 26 -25 66q0 41 25 67t65 26t64.5 -26t24.5 -67q0 -40 -25 -66t-65 -26q-39 0 -64 26z" />
    <glyph glyph-name="slash" unicode="/" horiz-adv-x="331" 
d="M230 685h101l-214 -725h-101z" />
    <glyph glyph-name="zero" unicode="0" horiz-adv-x="555" 
d="M462.5 567q59.5 -94 59.5 -239q0 -156 -63 -247.5t-184 -91.5q-120 0 -181 94t-62 241q0 96 27.5 172.5t83.5 120.5t137 44q123 0 182.5 -94zM209 490q-25 -56 -24 -166q-1 -109 24 -164.5t70 -55.5t68 56t23 166q0 108 -23 164t-69 56q-44 0 -69 -56z" />
    <glyph glyph-name="one" unicode="1" horiz-adv-x="555" 
d="M234 515l-124 -59l-25 114l172 80h126v-650h-147v515h-2z" />
    <glyph glyph-name="two" unicode="2" horiz-adv-x="555" 
d="M42 92l84 76q116 103 164 162.5t49 113.5q0 42 -26.5 68.5t-80.5 26.5q-68 0 -139 -54l-43 109q39 30 94.5 48.5t118.5 18.5q72 0 123.5 -26t78 -72t26.5 -106q0 -75 -45 -140.5t-128 -139.5l-60 -50v-2h245v-125h-461v92z" />
    <glyph glyph-name="three" unicode="3" horiz-adv-x="555" 
d="M138 121.5q41 -12.5 82 -12.5q57 0 88 24.5t31 62.5q0 45 -38 69t-93 24h-62v109h59q46 1 81 19t35 56q0 30 -25 49t-71 19q-36 0 -73.5 -12t-62.5 -27l-31 110q32 20 86.5 34.5t114.5 14.5q67 0 116 -21.5t74.5 -58.5t25.5 -82q0 -53 -30 -91.5t-89 -59.5v-2
q61 -11 101 -53.5t40 -104.5q0 -58 -32.5 -103t-92.5 -70.5t-141 -25.5q-59 0 -110.5 13t-82.5 33l31 114q28 -15 69 -27.5z" />
    <glyph glyph-name="four" unicode="4" horiz-adv-x="555" 
d="M311 155h-288v99l246 396h186v-381h78v-114h-78v-155h-144v155zM311 413q0 51 5 121h-4q-8 -15 -22 -45q-24 -50 -38 -76l-87 -142v-2h146v144z" />
    <glyph glyph-name="five" unicode="5" horiz-adv-x="555" 
d="M224 525l-14 -100q14 2 42 2q49 0 93.5 -11.5t77.5 -35.5q79 -53 79 -163q0 -61 -34 -113.5t-97 -83.5t-148 -31q-56 0 -103.5 10.5t-77.5 26.5l27 114q26 -12 66.5 -22t80.5 -10q53 0 91.5 25.5t38.5 73.5q0 108 -183 108q-48 0 -88 -6l43 341h358v-125h-252z" />
    <glyph glyph-name="six" unicode="6" horiz-adv-x="555" 
d="M398 540q-95 -8 -146.5 -50.5t-65.5 -105.5h3q50 52 138 52q55 0 101 -25.5t73 -73.5t27 -113q0 -64 -31 -118t-85.5 -85.5t-123.5 -31.5q-84 0 -142 38t-87 102t-29 144q0 90 30.5 164.5t84.5 124.5q97 88 251 96q32 2 40 2l21 -1v-117q-21 1 -59 -2zM350 133.5
q24 32.5 24 82.5q0 48 -25 80t-72 32q-30 0 -54 -16t-36 -42q-6 -12 -6 -38q2 -56 29 -93.5t76 -37.5q40 0 64 32.5z" />
    <glyph glyph-name="seven" unicode="7" horiz-adv-x="555" 
d="M508 554l-268 -554h-161l268 523v2h-298v125h459v-96z" />
    <glyph glyph-name="eight" unicode="8" horiz-adv-x="555" 
d="M140.5 15q-54.5 26 -81.5 67.5t-27 87.5q0 57 30.5 98t85.5 65v3q-46 23 -70 60.5t-24 81.5q0 54 30 95.5t82 64.5t117 23q72 0 120.5 -24.5t71.5 -62.5t23 -80q0 -44 -24 -82t-70 -61v-3q52 -20 85.5 -61.5t33.5 -100.5q0 -58 -31 -103t-87.5 -69.5t-131.5 -24.5
q-78 0 -132.5 26zM218 536.5q-21 -21.5 -21 -53.5q0 -31 25 -53t67 -35q28 8 47 30.5t19 52.5q0 33 -20 56.5t-59 23.5q-37 0 -58 -21.5zM343.5 117q24.5 23 24.5 58q0 41 -27.5 67.5t-74.5 39.5q-38 -10 -58.5 -36.5t-20.5 -62.5t25.5 -62.5t66.5 -26.5q40 0 64.5 23z" />
    <glyph glyph-name="nine" unicode="9" horiz-adv-x="555" 
d="M119 109q22 0 37 1q77 5 128 40q63 44 82 120l-3 1q-45 -47 -130 -47q-55 0 -101.5 25t-74 71t-27.5 107q0 63 31.5 117t87.5 85.5t126 31.5q80 0 135.5 -37.5t83 -101t27.5 -141.5q0 -99 -29.5 -174t-84.5 -125q-94 -85 -248 -91q-11 -1 -32 -1q-27 0 -37 1v119
q10 -1 29 -1zM206.5 518.5q-25.5 -31.5 -24.5 -82.5q0 -45 24 -74.5t68 -29.5q29 0 51 12t33 31q8 14 8 38q0 58 -23.5 97.5t-71.5 39.5q-39 0 -64.5 -31.5z" />
    <glyph glyph-name="colon" unicode=":" horiz-adv-x="260" 
d="M75 338q-25 26 -25 65q0 41 25 66.5t65 25.5t64 -25.5t25 -66.5q0 -39 -25 -65t-65 -26q-39 0 -64 26zM75 15q-25 26 -25 65q0 40 25 66t65 26q39 0 63.5 -25.5t25.5 -66.5q0 -39 -25 -65t-65 -26q-39 0 -64 26z" />
    <glyph glyph-name="semicolon" unicode=";" horiz-adv-x="260" 
d="M81 337.5q-25 25.5 -25 63.5q0 42 24.5 68t64.5 26t64 -25.5t25 -66.5q0 -40 -24.5 -65.5t-64.5 -25.5q-39 0 -64 25.5zM75 165l153 10q-25 -79 -58 -153.5t-68 -131.5l-100 -9q50 143 73 284z" />
    <glyph glyph-name="less" unicode="&#x3c;" horiz-adv-x="596" 
d="M538 532v-106l-363 -159v-2l363 -159v-106l-480 223v86z" />
    <glyph glyph-name="equal" unicode="=" horiz-adv-x="596" 
d="M40 418h516v-93h-516v93zM40 211h516v-93h-516v93z" />
    <glyph glyph-name="greater" unicode="&#x3e;" horiz-adv-x="596" 
d="M58 0v106l371 159v2l-371 159v106l480 -220v-92z" />
    <glyph glyph-name="question" unicode="?" horiz-adv-x="445" 
d="M137 244q-5 81 59 157q30 35 44 58t14 46q0 27 -18 43t-55 17q-25 0 -52.5 -8.5t-46.5 -21.5l-34 109q30 18 73.5 29.5t93.5 11.5q94 0 143 -44.5t49 -111.5q0 -50 -22 -86.5t-63 -81.5q-27 -30 -39.5 -60.5t-11.5 -64.5v-18h-133zM137 15q-25 26 -25 65q0 40 25 65.5
t64 25.5q40 0 64.5 -25.5t25.5 -65.5q0 -39 -25 -65t-65 -26q-39 0 -64 26z" />
    <glyph glyph-name="at" unicode="@" horiz-adv-x="770" 
d="M459.5 -96q-42.5 -8 -96.5 -8q-84 0 -155.5 38.5t-114 110t-42.5 166.5q0 102 47 189.5t132 139.5t195 52q87 0 156 -37t107.5 -103t38.5 -149q0 -71 -24.5 -125t-68 -83.5t-97.5 -29.5q-37 0 -59.5 19.5t-26.5 57.5h-2q-23 -38 -56 -57.5t-73 -19.5q-50 0 -81 35t-31 95
q0 62 29 115.5t82 85.5t123 32q33 0 66.5 -7t52.5 -18l-30 -185q-4 -23 -4 -43q0 -23 7 -33.5t23 -10.5q23 0 45 19.5t36.5 57.5t14.5 92q0 66 -28 118.5t-82 82.5t-129 30q-77 0 -143 -38.5t-105 -109t-39 -163.5q0 -82 32.5 -141t90.5 -90t133 -31q39 0 77.5 8.5
t67.5 23.5l18 -58q-44 -20 -86.5 -28zM426 349q-32 0 -59 -19.5t-43 -52t-16 -70.5q0 -29 13 -45.5t37 -16.5q28 0 53 31t32 74l14 95q-16 4 -31 4z" />
    <glyph glyph-name="A" unicode="A" horiz-adv-x="656" 
d="M175 0h-158l206 674h200l209 -674h-164l-52 173h-193zM352 430q-10 34 -29 110l-5 20h-2l-12 -52q-13 -58 -19 -78l-40 -143h149z" />
    <glyph glyph-name="B" unicode="B" horiz-adv-x="604" 
d="M151.5 675q55.5 4 111.5 4q72 0 117.5 -8.5t81.5 -29.5q37 -20 59 -54t22 -78q0 -47 -28 -85.5t-83 -58.5v-2q60 -16 97 -59.5t37 -106.5q0 -86 -70 -143q-77 -61 -265 -61q-97 0 -165 10v662q30 6 85.5 10zM267 407q59 0 91 22.5t32 60.5t-28 58t-80 20q-39 0 -65 -4
v-157h50zM276 106q57 0 93.5 23.5t36.5 73.5q0 48 -38 71.5t-99 23.5h-52v-190q15 -2 59 -2z" />
    <glyph glyph-name="C" unicode="C" horiz-adv-x="595" 
d="M491 -1.5q-46 -8.5 -103 -8.5q-113 0 -192.5 43.5t-120 119.5t-40.5 174q0 112 48.5 193t132.5 123t187 42q55 0 99 -9t67 -21l-31 -121q-60 25 -128 25q-95 0 -155 -57.5t-60 -165.5q0 -102 57.5 -161t158.5 -59q33 0 68.5 6.5t58.5 15.5l23 -119q-24 -12 -70 -20.5z
" />
    <glyph glyph-name="D" unicode="D" horiz-adv-x="696" 
d="M272 679q95 0 161 -17.5t115 -54.5q54 -40 84 -103.5t30 -150.5q0 -92 -30 -160.5t-82 -112.5q-105 -87 -311 -87q-97 0 -173 10v662q87 14 206 14zM275 112q106 0 165.5 60t59.5 179q0 102 -56.5 156.5t-155.5 54.5q-43 0 -69 -6v-441q14 -3 56 -3z" />
    <glyph glyph-name="E" unicode="E" horiz-adv-x="534" 
d="M219 285v-160h277v-125h-430v674h416v-125h-263v-140h248v-124h-248z" />
    <glyph glyph-name="F" unicode="F" horiz-adv-x="527" 
d="M478 674v-125h-259v-154h242v-124h-242v-271h-153v674h412z" />
    <glyph glyph-name="G" unicode="G" horiz-adv-x="682" 
d="M524.5 4.5q-60.5 -11.5 -120.5 -11.5q-180 0 -274 91q-46 43 -70.5 105.5t-24.5 135.5q0 111 49 191t136.5 122.5t199.5 42.5q60 0 109.5 -9.5t77.5 -23.5l-32 -122q-67 29 -157 29q-99 0 -161 -56t-62 -162q0 -103 58.5 -162t153.5 -59q55 0 75 10v141h-104v119h251
v-355q-44 -15 -104.5 -26.5z" />
    <glyph glyph-name="H" unicode="H" horiz-adv-x="689" 
d="M219 415h251v259h152v-674h-152v282h-251v-282h-153v674h153v-259z" />
    <glyph glyph-name="I" unicode="I" horiz-adv-x="285" 
d="M219 0h-153v674h153v-674z" />
    <glyph glyph-name="J" unicode="J" horiz-adv-x="411" 
d="M350 674v-426q0 -138 -61.5 -198.5t-178.5 -60.5q-27 0 -58 4.5t-53 11.5l17 123q36 -12 78 -12q52 0 78 29.5t26 104.5v424h152z" />
    <glyph glyph-name="K" unicode="K" horiz-adv-x="614" 
d="M217 674v-298h3q10 18 32 52l14 22l153 224h187l-223 -287l235 -387h-178l-165 291l-58 -71v-220h-151v674h151z" />
    <glyph glyph-name="L" unicode="L" horiz-adv-x="511" 
d="M219 674v-546h268v-128h-421v674h153z" />
    <glyph glyph-name="M" unicode="M" horiz-adv-x="846" 
d="M630 535h-3q-31 -128 -75 -261l-82 -263h-119l-72 261q-38 136 -61 263h-2l-4 -99q-3 -84 -8 -180l-12 -256h-141l43 674h203l66 -225q38 -142 57 -241h3q34 140 64 242l72 224h199l37 -674h-149l-10 258q-6 162 -6 277z" />
    <glyph glyph-name="N" unicode="N" horiz-adv-x="690" 
d="M66 674h178l140 -247q63 -112 110 -231h3q-13 116 -13 281v197h140v-674h-160l-144 260q-71 128 -117 238l-3 -1q6 -133 6 -294v-203h-140v674z" />
    <glyph glyph-name="O" unicode="O" horiz-adv-x="717" 
d="M535.5 639.5q72.5 -45.5 110 -123t37.5 -172.5q0 -109 -41.5 -189t-116.5 -123t-173 -43q-97 0 -169 45t-110 123t-38 175q0 101 40.5 181t115 126t172.5 46q100 0 172.5 -45.5zM239.5 500q-43.5 -64 -43.5 -165q0 -100 44.5 -162.5t119.5 -62.5t118.5 64t43.5 165
q0 62 -19 113t-56 81.5t-88 30.5q-76 0 -119.5 -64z" />
    <glyph glyph-name="P" unicode="P" horiz-adv-x="581" 
d="M272 679q139 0 206 -54q33 -26 52.5 -67t19.5 -89q0 -49 -16 -90t-46 -70q-75 -71 -219 -71q-31 0 -52 3v-241h-151v665q82 14 206 14zM268 355q61 0 96 29t35 81q0 47 -31 73t-88 26q-41 0 -63 -6v-199q17 -4 51 -4z" />
    <glyph glyph-name="Q" unicode="Q" horiz-adv-x="717" 
d="M376 -21q-21 8 -47 10q-79 5 -146 45.5t-107.5 116t-40.5 180.5q0 101 40.5 181.5t115.5 126.5t173 46q100 0 172 -45.5t109.5 -123t37.5 -171.5q0 -110 -45 -189.5t-115 -111.5v-4q52 -15 163 -38l-44 -118q-133 39 -266 95zM478.5 174q43.5 64 43.5 165q0 62 -19 113.5
t-56 81.5t-87 30q-51 0 -88 -30.5t-56.5 -83.5t-19.5 -117t20 -114.5t57 -79.5t86 -29q76 0 119.5 64z" />
    <glyph glyph-name="R" unicode="R" horiz-adv-x="593" 
d="M269 679q77 0 130 -12.5t88 -40.5q62 -50 62 -141q0 -60 -35.5 -104t-83.5 -62v-3q34 -14 55 -45.5t35 -80.5q11 -37 17 -64q28 -105 38 -126h-156q-16 27 -47 157q-13 62 -37 84.5t-72 23.5h-46v-265h-151v665q86 14 203 14zM277 375q57 0 89 26t32 71q0 46 -29.5 69.5
t-82.5 24.5q-41 0 -69 -5v-186h60z" />
    <glyph glyph-name="S" unicode="S" horiz-adv-x="540" 
d="M150.5 127q44.5 -12 89.5 -12q52 0 79.5 19.5t27.5 53.5q0 31 -25.5 52t-87.5 43q-185 64 -185 199q0 58 31 104t88.5 72.5t135.5 26.5q96 0 172 -34l-34 -123q-66 32 -141 32q-47 0 -72.5 -18.5t-25.5 -46.5q0 -30 27 -49t98 -46q90 -33 132.5 -81.5t42.5 -119.5
q0 -58 -30 -105.5t-91.5 -75.5t-150.5 -28q-55 0 -107.5 12t-83.5 29l31 126q35 -18 79.5 -30z" />
    <glyph glyph-name="T" unicode="T" horiz-adv-x="548" 
d="M15 546v128h518v-128h-184v-546h-153v546h-181z" />
    <glyph glyph-name="U" unicode="U" horiz-adv-x="682" 
d="M218 286q0 -86 31.5 -130.5t90.5 -44.5q124 0 124 175v388h152v-378q0 -153 -73 -230t-208 -77q-131 0 -200.5 75.5t-69.5 233.5v376h153v-388z" />
    <glyph glyph-name="V" unicode="V" horiz-adv-x="636" 
d="M9 674h167l82 -285q42 -145 60 -241h3q24 114 61 238l86 288h162l-227 -674h-178z" />
    <glyph glyph-name="W" unicode="W" horiz-adv-x="888" 
d="M15 674h163l51 -278q14 -77 40 -235h2q13 84 44 237l57 276h162l54 -284q20 -104 36 -226h2q7 55 30 182l9 52l55 276h155l-174 -674h-165l-57 290q-23 119 -32 208h-2q-20 -128 -39 -208l-64 -290h-167z" />
    <glyph glyph-name="X" unicode="X" horiz-adv-x="613" 
d="M360 122q-13 24 -26 51t-20 41l-14 29h-2q-15 -41 -38 -90l-14 -31l-56 -122h-174l195 341l-188 333h175l59 -123q28 -58 51 -112h2q16 44 46 112l57 123h174l-190 -329l200 -345h-176z" />
    <glyph glyph-name="Y" unicode="Y" horiz-adv-x="603" 
d="M222 276l-213 398h174l69 -162q22 -51 52 -129h2q17 46 51 129l68 162h171l-222 -393v-281h-152v276z" />
    <glyph glyph-name="Z" unicode="Z" horiz-adv-x="577" 
d="M344 544v4h-291v126h489v-88l-314 -456v-4h319v-126h-524v82z" />
    <glyph glyph-name="bracketleft" unicode="[" horiz-adv-x="314" 
d="M68 684h205v-84h-95v-629h95v-84h-205v797z" />
    <glyph glyph-name="backslash" unicode="\" horiz-adv-x="330" 
d="M12 685h101l201 -725h-100z" />
    <glyph glyph-name="bracketright" unicode="]" horiz-adv-x="314" 
d="M246 -112h-204v84h95v630h-95v84h204v-798z" />
    <glyph glyph-name="asciicircum" unicode="^" horiz-adv-x="596" 
d="M299 533h-3l-147 -356h-107l210 473h92l210 -473h-109z" />
    <glyph glyph-name="underscore" unicode="_" horiz-adv-x="500" 
d="M500 -125h-500v50h500v-50z" />
    <glyph glyph-name="grave" unicode="`" 
d="M230 550h-104l-122 152h140z" />
    <glyph glyph-name="a" unicode="a" horiz-adv-x="528" 
d="M330 49h-3q-24 -29 -60 -44.5t-80 -15.5q-48 0 -84 21t-55 55t-19 74q0 93 76.5 140.5t210.5 46.5v7q0 25 -19.5 44t-69.5 19q-36 0 -73 -10.5t-62 -26.5l-28 98q31 17 80.5 30t109.5 13q114 0 164.5 -58t50.5 -153v-170q0 -81 7 -119h-137zM217.5 214
q-38.5 -18 -38.5 -60q0 -28 16.5 -43t43.5 -15q28 0 49.5 16t29.5 40q3 12 3 26v53q-65 1 -103.5 -17z" />
    <glyph glyph-name="b" unicode="b" horiz-adv-x="598" 
d="M61 146v564h152v-279h2q22 32 60 50.5t88 18.5q58 0 104 -30.5t72 -85.5t26 -128q0 -85 -31.5 -145.5t-82.5 -91t-110 -30.5q-99 0 -147 79h-2l-6 -68h-129q4 64 4 146zM216 181q8 -31 32.5 -51.5t56.5 -20.5q49 0 77 36t28 102q0 60 -27 98t-78 38q-31 0 -56.5 -21
t-32.5 -54q-3 -13 -3 -28v-72q0 -15 3 -27z" />
    <glyph glyph-name="c" unicode="c" horiz-adv-x="451" 
d="M370.5 -4q-36.5 -6 -78.5 -6q-78 0 -137 30.5t-90.5 87t-31.5 132.5q0 73 32.5 132t96 93.5t151.5 34.5q65 0 116 -19l-24 -113q-34 15 -85 15q-60 0 -96 -38.5t-35 -98.5q0 -65 38 -101t96 -36q49 0 87 15l18 -112q-21 -10 -57.5 -16z" />
    <glyph glyph-name="d" unicode="d" horiz-adv-x="596" 
d="M535 146q0 -80 4 -146h-135l-7 72h-2q-23 -40 -63.5 -61.5t-89.5 -21.5q-58 0 -106 31.5t-75.5 89t-27.5 132.5q0 79 30 137.5t80 89.5t109 31q45 0 78.5 -14.5t50.5 -40.5h2v265h152v-564zM381 309q-7 32 -31 53.5t-58 21.5q-50 0 -77.5 -39.5t-27.5 -99.5
q0 -62 28.5 -98.5t75.5 -36.5q33 0 57 20.5t31 52.5q4 15 4 35v64q0 11 -2 27z" />
    <glyph glyph-name="e" unicode="e" horiz-adv-x="528" 
d="M220.5 127q38.5 -24 95.5 -24q72 0 135 20l20 -103q-75 -30 -177 -30q-123 0 -192 66.5t-69 182.5q0 65 27.5 125t83 98t136.5 38q75 0 124 -34.5t71.5 -89.5t22.5 -120q0 -32 -5 -60h-315q4 -45 42.5 -69zM337.5 368q-19.5 31 -66.5 31q-43 0 -66.5 -30.5t-27.5 -68.5
h180q0 37 -19.5 68z" />
    <glyph glyph-name="f" unicode="f" horiz-adv-x="341" 
d="M78 377h-64v112h64v19q0 48 15.5 92t46.5 72q27 25 63 37t72 12q46 0 81 -10l-6 -117q-23 7 -49 7q-36 0 -53.5 -24t-17.5 -63v-25h98v-112h-97v-377h-153v377z" />
    <glyph glyph-name="g" unicode="g" horiz-adv-x="585" 
d="M524 344v-273q0 -75 -17.5 -130t-56.5 -90q-70 -60 -199 -60q-49 0 -96.5 10t-79.5 28l30 115q26 -15 64 -26t78 -11q57 0 92 32t35 97v32h-2q-22 -31 -56 -47.5t-76 -16.5q-60 0 -107 30.5t-73.5 84.5t-26.5 124q0 76 30 134.5t81 90.5t111 32q91 0 134 -69h2l5 58h132
q-4 -62 -4 -145zM369 318q-8 31 -29.5 49t-52.5 18q-43 0 -71.5 -37t-28.5 -102q0 -57 26.5 -93.5t73.5 -36.5q29 0 50.5 17.5t29.5 44.5q5 14 5 40v72q0 16 -3 28z" />
    <glyph glyph-name="h" unicode="h" horiz-adv-x="586" 
d="M213 710v-279h2q23 30 60 50q35 19 79 19q77 0 124 -54t47 -160v-286h-152v269q0 51 -19 79.5t-60 28.5q-28 0 -47.5 -15t-28.5 -38q-5 -12 -5 -34v-290h-152v710h152z" />
    <glyph glyph-name="i" unicode="i" horiz-adv-x="274" 
d="M195 680.5q22 -21.5 23 -55.5q0 -32 -22.5 -54t-59.5 -22q-35 0 -57.5 22t-21.5 54q-1 33 21.5 55t58.5 22t58 -21.5zM61 489h152v-489h-152v489z" />
    <glyph glyph-name="j" unicode="j" horiz-adv-x="291" 
d="M214.5 680.5q21.5 -21.5 22.5 -55.5q0 -32 -22.5 -54t-59.5 -22q-35 0 -57 22t-22 54q0 34 22 55.5t59 21.5q36 0 57.5 -21.5zM50 -58q17 17 23.5 52t6.5 107v388h153v-424q0 -79 -17 -130.5t-52 -83.5q-32 -30 -81.5 -45t-107.5 -15l-15 119q64 5 90 32z" />
    <glyph glyph-name="k" unicode="k" horiz-adv-x="542" 
d="M215 283q15 28 35 59l99 147h183l-175 -198l200 -291h-187l-118 201l-39 -48v-153h-152v710h152v-427h2z" />
    <glyph glyph-name="l" unicode="l" horiz-adv-x="275" 
d="M213 710v-710h-152v710h152z" />
    <glyph glyph-name="m" unicode="m" horiz-adv-x="860" 
d="M57 489h128l7 -66h3q52 77 148 77q47 0 82.5 -22t51.5 -61h2q26 37 63 59q41 24 93 24q74 0 119.5 -53.5t45.5 -158.5v-288h-148v266q0 54 -18 83t-54 29q-25 0 -43.5 -15t-26.5 -38q-6 -16 -6 -39v-286h-148v274q0 48 -17.5 76t-52.5 28q-27 0 -45 -16.5t-26 -38.5
q-6 -14 -6 -38v-285h-148v333q0 70 -4 156z" />
    <glyph glyph-name="n" unicode="n" horiz-adv-x="586" 
d="M57 489h132l7 -67h3q19 30 58 54t93 24q79 0 127 -53t48 -157v-290h-152v271q0 50 -18.5 78t-58.5 28q-29 0 -48.5 -16.5t-28.5 -40.5q-6 -13 -6 -38v-282h-152v333q0 70 -4 156z" />
    <glyph glyph-name="o" unicode="o" horiz-adv-x="577" 
d="M425 468.5q57 -31.5 88 -88.5t31 -130q0 -86 -36 -144.5t-95 -87.5t-127 -29q-72 0 -129.5 30.5t-90.5 87.5t-33 134q0 78 32.5 136.5t91.5 90.5t137 32q74 0 131 -31.5zM214.5 349q-24.5 -43 -24.5 -104q0 -65 26.5 -106t73.5 -41q44 0 70.5 40.5t26.5 106.5
q0 61 -24.5 104t-72.5 43q-51 0 -75.5 -43z" />
    <glyph glyph-name="p" unicode="p" horiz-adv-x="598" 
d="M57 489h132l7 -68h2q55 79 163 79q54 0 100.5 -30t74.5 -87t28 -132q0 -85 -31.5 -144t-82.5 -88.5t-108 -29.5q-43 0 -76.5 15.5t-50.5 40.5h-2v-243h-152v523q0 74 -4 164zM216 178q8 -31 32.5 -51.5t56.5 -20.5q49 0 77 37.5t28 100.5q0 61 -27 99t-76 38
q-32 0 -58 -21.5t-33 -55.5q-3 -12 -3 -27v-67q0 -18 3 -32z" />
    <glyph glyph-name="q" unicode="q" horiz-adv-x="595" 
d="M381 61q-49 -72 -145 -72q-54 0 -100.5 30.5t-74.5 87t-28 131.5q0 83 31.5 142.5t81 89.5t103.5 30q95 0 136 -68h2l4 57h147l-1 -45q-2 -66 -2 -102v-540h-152v259h-2zM380 309q-6 31 -30 52t-57 21q-51 0 -78 -38t-27 -100t27.5 -98.5t75.5 -36.5q32 0 56 19.5
t32 49.5q4 13 4 33v73q0 13 -3 25z" />
    <glyph glyph-name="r" unicode="r" horiz-adv-x="380" 
d="M57 489h131l5 -90h4q17 50 55 75.5t77 25.5q21 0 32 -2v-143q-22 4 -41 4q-42 0 -69 -20.5t-35 -56.5q-3 -15 -3 -34v-248h-152v328q0 77 -4 161z" />
    <glyph glyph-name="s" unicode="s" horiz-adv-x="434" 
d="M121 107.5q38 -11.5 70 -11.5q65 0 65 41q0 19 -14.5 30.5t-57.5 25.5q-72 24 -105.5 62t-33.5 83q0 46 24.5 83t69.5 58t105 21q41 0 77.5 -8t60.5 -20l-27 -105q-20 11 -48.5 19.5t-57.5 8.5q-28 0 -43 -10.5t-15 -29.5q0 -17 16.5 -28.5t62.5 -27.5q69 -24 100.5 -60
t32.5 -91q0 -71 -55 -114.5t-157 -43.5q-47 0 -88 9t-70 25l27 109q23 -14 61 -25.5z" />
    <glyph glyph-name="t" unicode="t" horiz-adv-x="367" 
d="M231 489h109v-112h-109v-177q0 -46 13 -66t47 -20q23 0 45 4l1 -115q-32 -13 -99 -13q-36 0 -65.5 11.5t-48.5 30.5q-42 44 -42 145v200h-65v112h65v106l149 34v-140z" />
    <glyph glyph-name="u" unicode="u" horiz-adv-x="583" 
d="M526 0h-132l-7 69h-3q-20 -31 -57.5 -55.5t-95.5 -24.5q-79 0 -125.5 52.5t-46.5 160.5v287h153v-263q0 -114 76 -114q29 0 48 15.5t28 37.5q5 11 5 33v291h153v-332q0 -75 4 -157z" />
    <glyph glyph-name="v" unicode="v" horiz-adv-x="530" 
d="M240 262q17 -59 28 -119h3q13 67 27 119l63 227h160l-182 -489h-152l-178 489h165z" />
    <glyph glyph-name="w" unicode="w" horiz-adv-x="759" 
d="M205 289q18 -94 28 -161h2q10 56 36 160l52 201h120l49 -195q26 -110 36 -166h2q8 67 28 167l42 194h149l-150 -489h-143l-46 172q-17 68 -31 152h-2q-12 -81 -32 -152l-49 -172h-143l-142 489h155z" />
    <glyph glyph-name="x" unicode="x" horiz-adv-x="519" 
d="M225 408l40 -73h2l10 20q15 31 28 55l43 79h165l-161 -233l163 -256h-172l-49 88q-14 24 -38 74h-3l-25 -50l-12 -24l-46 -88h-167l166 249l-162 240h170z" />
    <glyph glyph-name="y" unicode="y" horiz-adv-x="523" 
d="M248 249q18 -67 24 -91h3q9 33 13 53l9 38l60 240h163l-114 -322q-50 -140 -89.5 -211t-82.5 -110q-65 -56 -147 -67l-32 129q31 5 66 26q17 9 34.5 25.5t28.5 35.5q8 11 8 22t-7 25l-179 447h169z" />
    <glyph glyph-name="z" unicode="z" horiz-adv-x="469" 
d="M176 280q32 38 78 87v2h-215v120h400v-91l-147 -185q-6 -7 -31 -37t-49 -53v-2h235v-121h-425v87z" />
    <glyph glyph-name="braceleft" unicode="{" horiz-adv-x="314" 
d="M91 346q15 19 15 48q0 24 -6 78q-5 45 -5 79q0 68 40 101.5t112 33.5h35v-85h-18q-32 0 -46.5 -18t-14.5 -53q0 -12 2 -29.5t3 -27.5q5 -50 5 -68q1 -54 -20 -80t-65 -36v-2q43 -10 64 -35.5t21 -77.5q0 -19 -5 -74q-1 -9 -3 -26.5t-2 -29.5q0 -35 14 -53.5t47 -18.5h18
v-84h-36q-151 0 -151 136q0 34 5 79q6 54 6 78q0 28 -15 47.5t-61 20.5v77q46 1 61 20z" />
    <glyph glyph-name="bar" unicode="|" horiz-adv-x="283" 
d="M194 -250h-106v1000h106v-1000z" />
    <glyph glyph-name="braceright" unicode="}" horiz-adv-x="314" 
d="M223.5 228.5q-15.5 -19.5 -15.5 -47.5q0 -24 6 -78t6 -79q0 -136 -152 -136h-36v84h18q33 1 47 19t14 53q0 23 -5 56q-5 55 -5 74q0 52 21 77.5t65 35.5v2q-44 10 -65 35t-21 77q0 20 5 72q5 35 5 57q0 34 -14 52t-47 19h-18v85h35q73 0 113 -33t40 -102q0 -25 -6 -79
t-6 -78q0 -29 15 -48t61 -20v-77q-45 -1 -60.5 -20.5z" />
    <glyph glyph-name="asciitilde" unicode="~" horiz-adv-x="596" 
d="M79.5 333.5q37.5 45.5 102.5 45.5q34 0 63.5 -10.5t76.5 -37.5q40 -22 59.5 -30.5t35.5 -8.5q19 0 29 18.5t12 62.5h95q4 -100 -33 -144.5t-100 -44.5q-33 0 -63.5 11.5t-76.5 36.5q-40 24 -59.5 33t-35.5 9q-20 0 -32 -18t-15 -64h-95q-1 96 36.5 141.5z" />
    <glyph glyph-name="uni00A0" unicode="&#xa0;" horiz-adv-x="202" 
 />
    <glyph glyph-name="exclamdown" unicode="&#xa1;" horiz-adv-x="268" 
d="M198.5 469.5q24.5 -25.5 24.5 -66.5q0 -39 -24.5 -64.5t-64.5 -25.5q-39 0 -64 25.5t-25 64.5q0 40 25 66t64 26q40 0 64.5 -25.5zM77 257h115l22 -455h-159z" />
    <glyph glyph-name="cent" unicode="&#xa2;" horiz-adv-x="555" 
d="M279 86q-93 15 -148 77q-27 31 -41.5 73t-14.5 91q0 93 54 162t150 88v96h99v-91q53 -3 95 -20l-24 -112q-36 18 -89 18q-59 0 -94 -37t-35 -98q0 -65 37 -99.5t93 -34.5q55 0 99 17l18 -109q-40 -20 -101 -23v-96h-98v98z" />
    <glyph glyph-name="sterling" unicode="&#xa3;" horiz-adv-x="555" 
d="M51 81q44 18 78 58.5t34 88.5q0 19 -3 40h-98v103h80q-8 40 -8 81q0 62 28.5 109.5t80 73.5t117.5 26q38 0 68.5 -7t49.5 -17l-25 -115q-31 18 -84 18q-49 0 -71 -26.5t-22 -67.5q0 -37 9 -75h137v-103h-124q2 -40 -9 -71q-15 -41 -49 -71v-2h267v-124h-456v81z" />
    <glyph glyph-name="currency" unicode="&#xa4;" horiz-adv-x="555" 
d="M394 515l77 83l66 -68l-87 -78q32 -55 32 -116q0 -72 -34 -121l84 -81l-65 -66l-74 87q-22 -19 -54 -29t-63 -10t-63 10t-53 28l-72 -86l-65 66l83 79q-36 52 -36 120q0 65 35 119l-87 77l67 70l77 -86q46 37 116 37q68 0 116 -35zM210 416.5q-26 -31.5 -26 -82.5
q0 -37 13.5 -63.5t35 -40t43.5 -13.5q37 0 65 30.5t28 87.5q0 49 -26.5 81t-66.5 32t-66 -31.5z" />
    <glyph glyph-name="yen" unicode="&#xa5;" horiz-adv-x="555" 
d="M201 160h-155v71h155v64h-155v71h119l-163 284h163l70 -160q19 -43 32 -83q4 -8 10 -26h2l13 35q14 36 30 75l71 159h160l-171 -284h119v-71h-157v-64h157v-71h-157v-160h-143v160z" />
    <glyph glyph-name="brokenbar" unicode="&#xa6;" horiz-adv-x="283" 
d="M194 324h-106v350h106v-350zM194 -176h-106v350h106v-350z" />
    <glyph glyph-name="section" unicode="&#xa7;" horiz-adv-x="561" 
d="M309 590q-43 0 -66.5 -13t-23.5 -35t25 -37.5t82 -32.5q94 -29 142 -66.5t48 -108.5q0 -38 -19.5 -69t-53.5 -53q17 -13 30.5 -37t13.5 -55q0 -57 -34 -93t-84.5 -51.5t-102.5 -15.5q-117 0 -187 44l29 92q27 -16 68.5 -29t82.5 -13t66 13.5t25 38.5q0 24 -23.5 40
t-82.5 35q-96 29 -147.5 66.5t-51.5 105.5q0 34 21.5 68t61.5 54q-17 13 -28.5 38.5t-11.5 52.5q0 73 61.5 114t156.5 41t158 -30l-24 -92q-58 28 -131 28zM184 299.5q21 -18.5 66 -34.5l51 -18q53 -17 67 -25q13 8 21 22.5t8 29.5q0 45 -69 72l-46 17q-56 20 -83 32
q-17 -9 -26.5 -22t-9.5 -30q0 -25 21 -43.5z" />
    <glyph glyph-name="dieresis" unicode="&#xa8;" 
d="M-5 577.5q-21 20.5 -21 49.5q0 30 21 50.5t51 20.5q29 0 48.5 -20t19.5 -51q0 -29 -19.5 -49.5t-48.5 -20.5q-30 0 -51 20.5zM205.5 577.5q-20.5 20.5 -20.5 49.5q0 31 20.5 51t50.5 20q29 0 49 -20t20 -51q0 -29 -19.5 -49.5t-49.5 -20.5t-50.5 20.5z" />
    <glyph glyph-name="copyright" unicode="&#xa9;" horiz-adv-x="677" 
d="M494 606.5q70 -41.5 110.5 -112t40.5 -154.5q0 -85 -40.5 -156t-110.5 -112.5t-154 -41.5q-85 0 -155.5 41.5t-111.5 112.5t-41 156q0 84 41 154.5t111.5 112t155.5 41.5q84 0 154 -41.5zM217.5 557.5q-55.5 -33.5 -88 -91.5t-32.5 -127t32.5 -127t88 -91.5t121.5 -33.5
q65 0 120.5 34t88 91.5t32.5 126.5t-32.5 126.5t-88 91.5t-120.5 34q-66 0 -121.5 -33.5zM420 453.5q-27 7.5 -56 7.5q-58 0 -91 -33t-33 -91q0 -55 34 -90t89 -35q30 0 56.5 7t43.5 18l15 -52q-49 -32 -124 -32q-57 0 -99 23.5t-64 65t-22 92.5q0 56 27 98t71.5 65t96.5 23
q35 0 67.5 -8.5t42.5 -19.5l-15 -53q-12 7 -39 14.5z" />
    <glyph glyph-name="ordfeminine" unicode="&#xaa;" horiz-adv-x="378" 
d="M240 299h-2q-38 -38 -99 -38q-48 0 -77 28t-29 70q0 57 53 86.5t144 29.5v7q0 12 -13 25t-48 13q-26 0 -50.5 -7t-41.5 -18l-20 64q22 13 56.5 22.5t75.5 9.5q76 0 111.5 -39.5t35.5 -100.5v-107q0 -54 5 -78h-94zM162.5 404q-27.5 -12 -27.5 -37q0 -16 12.5 -27
t31.5 -11q16 0 30 8.5t20 21.5q5 12 5 22v35q-44 0 -71.5 -12z" />
    <glyph glyph-name="guillemotleft" unicode="&#xab;" horiz-adv-x="465" 
d="M248 61h-106l-116 191l116 191h106l-119 -191zM442 61h-106l-116 191l116 191h106l-119 -191z" />
    <glyph glyph-name="logicalnot" unicode="&#xac;" horiz-adv-x="596" 
d="M556 106h-97v223h-419v93h516v-316z" />
    <glyph glyph-name="uni00AD" unicode="&#xad;" horiz-adv-x="322" 
d="M292 212h-262v101h262v-101z" />
    <glyph glyph-name="registered" unicode="&#xae;" horiz-adv-x="459" 
d="M319.5 662q40.5 -23 64 -62.5t23.5 -86.5t-23.5 -87t-64 -63t-89.5 -23t-89.5 23t-64.5 63t-24 87t24 86.5t64.5 62.5t89.5 23t89.5 -23zM140.5 604q-35.5 -38 -35.5 -92t35.5 -91.5t89.5 -37.5t89.5 37.5t35.5 92.5q0 54 -36 91.5t-90 37.5q-53 0 -88.5 -38zM159 431
v159q27 5 70 5t64 -12q17 -12 17 -35q0 -12 -10 -21.5t-27 -14.5v-2q14 -5 21.5 -14.5t11.5 -26.5q6 -28 11 -38h-55q-5 6 -11 34q-5 24 -27 24h-16v-58h-49zM224 522q14 0 22 5t8 14q0 10 -7.5 15t-20.5 5l-16 -1v-38h14z" />
    <glyph glyph-name="macron" unicode="&#xaf;" 
d="M276 582h-251v83h251v-83z" />
    <glyph glyph-name="degree" unicode="&#xb0;" horiz-adv-x="356" 
d="M257.5 665q34.5 -20 54 -53.5t19.5 -72.5q0 -42 -21 -76t-56 -53t-76 -19q-43 0 -77.5 19.5t-54 53.5t-19.5 74t20.5 74t55.5 53.5t76 19.5q44 0 78.5 -20zM127 592q-20 -23 -20 -55t20.5 -54t51.5 -22t51 22t20 55q0 31 -19 54t-52 23q-32 0 -52 -23z" />
    <glyph glyph-name="plusminus" unicode="&#xb1;" horiz-adv-x="596" 
d="M347 406h209v-93h-209v-176h-98v176h-209v93h209v173h98v-173zM556 0h-516v93h516v-93z" />
    <glyph glyph-name="uni00B2" unicode="&#xb2;" horiz-adv-x="352" 
d="M76 554l17 15q58 51 79 76.5t21 52.5q0 22 -16 35.5t-43 13.5q-45 0 -86 -28l-30 76q27 19 65 31t80 12q73 0 113 -34t40 -87q0 -34 -15 -62t-38 -50t-62 -54l-24 -20v-2h146v-86h-308v56z" />
    <glyph glyph-name="uni00B3" unicode="&#xb3;" horiz-adv-x="347" 
d="M86 829q38 9 79 9q69 0 107 -28t38 -71q0 -31 -23 -54.5t-60 -34.5v-2q42 -5 69.5 -30t27.5 -62q0 -53 -49 -85.5t-131 -32.5q-40 0 -76.5 7.5t-58.5 20.5l23 77q19 -10 46 -18t52 -8q32 0 52 13t19 33q0 24 -25.5 37t-60.5 13h-30v68h28q30 0 53.5 10t23.5 31
q0 16 -13.5 26t-39.5 10q-24 0 -48.5 -7.5t-41.5 -17.5l-22 73q23 14 61 23z" />
    <glyph glyph-name="acute" unicode="&#xb4;" 
d="M180 550h-105l86 152h141z" />
    <glyph glyph-name="uni00B5" unicode="&#xb5;" horiz-adv-x="585" 
d="M342.5 15q-31.5 -22 -75.5 -22q-20 0 -38 7.5t-31 21.5v-42q0 -47 3 -99.5t8 -78.5h-135q-6 17 -9.5 67.5t-3.5 109.5v510h152v-273q0 -50 19 -77.5t55 -27.5q27 0 49 16.5t30 37.5q5 15 5 33v291h152v-330q0 -31 10 -43t32 -13l-9 -105q-18 -9 -54 -9q-43 0 -71.5 20
t-39.5 58h-3q-14 -30 -45.5 -52z" />
    <glyph glyph-name="paragraph" unicode="&#xb6;" horiz-adv-x="542" 
d="M206 264h-7q-32 0 -72 22t-68 65t-28 102q0 95 66 160t230 65q100 0 143 -11v-714h-97v631h-71v-631h-96v311z" />
    <glyph glyph-name="periodcentered" unicode="&#xb7;" horiz-adv-x="260" 
d="M65 193q-25 26 -25 66t25.5 66.5t64.5 26.5q40 0 64.5 -26t25.5 -67q0 -40 -25 -66t-65 -26t-65 26z" />
    <glyph glyph-name="cedilla" unicode="&#xb8;" 
d="M176 -44q30 -3 51 -23t21 -49q0 -46 -34 -67t-87 -21q-48 0 -81 20l20 57q31 -17 55 -17q15 0 25.5 6.5t9.5 19.5q0 30 -77 36l42 86h82z" />
    <glyph glyph-name="uni00B9" unicode="&#xb9;" 
d="M118 737h-2l-79 -35l-16 83l112 48h102v-390h-117v294z" />
    <glyph glyph-name="ordmasculine" unicode="&#xba;" horiz-adv-x="386" 
d="M315.5 545.5q45.5 -45.5 45.5 -116.5q0 -54 -23.5 -92t-62.5 -57t-84 -19q-47 0 -85 20t-60.5 57t-22.5 85q0 75 48 121.5t123 46.5q76 0 121.5 -45.5zM146 489q-15 -28 -15 -64q0 -38 17 -64t45 -26q29 0 45 25.5t16 66.5q0 35 -16.5 62.5t-45.5 27.5q-31 0 -46 -28z
" />
    <glyph glyph-name="guillemotright" unicode="&#xbb;" horiz-adv-x="465" 
d="M127 443l117 -191l-117 -191h-104l119 191l-119 191h104zM319 443l117 -191l-117 -191h-105l120 191l-120 191h105z" />
    <glyph glyph-name="onequarter" unicode="&#xbc;" horiz-adv-x="831" 
d="M542 661h83l-369 -672h-83zM132 561h-1l-80 -35l-16 82l112 48h102v-390h-117v295zM634 90h-192v64l166 239h135v-228h51v-75h-51v-90h-109v90zM636 283q2 20 2 29l-2 1l-9 -18q-16 -32 -27 -49l-53 -80l2 -1h85v73q0 15 2 45z" />
    <glyph glyph-name="onehalf" unicode="&#xbd;" horiz-adv-x="831" 
d="M518 661h83l-369 -672h-83zM120 561h-2l-79 -35l-16 82l112 48h102v-390h-117v295zM546 112q69 61 93 88t24 56q0 21 -16 34.5t-43 13.5q-45 0 -86 -28l-31 76q26 19 64.5 31t81.5 12q72 0 112 -34t40 -87q0 -33 -15 -61t-37.5 -50.5t-61.5 -54.5l-24 -19v-2h146v-87
h-308v56z" />
    <glyph glyph-name="threequarters" unicode="&#xbe;" horiz-adv-x="831" 
d="M102.5 652q37.5 9 79.5 9q70 0 107.5 -28t37.5 -71q0 -31 -22.5 -54t-59.5 -34v-2q42 -5 69.5 -30t27.5 -62q0 -53 -49.5 -86t-131.5 -33q-40 0 -76 8t-58 20l22 78q19 -10 46 -18t52 -8q31 0 51.5 12.5t20.5 32.5q0 24 -25.5 37t-61.5 13h-30v68h28q30 0 53.5 10.5
t23.5 31.5q0 16 -13 25.5t-39 9.5q-24 0 -48.5 -7.5t-42.5 -16.5l-22 72q23 14 60.5 23zM574 661h83l-370 -672h-82zM644 90h-192v64l165 239h135v-228h52v-75h-52v-90h-108v90zM646 283q2 20 2 29l-3 1q-23 -48 -35 -67l-53 -80l2 -1h85v73q0 15 2 45z" />
    <glyph glyph-name="questiondown" unicode="&#xbf;" horiz-adv-x="445" 
d="M312.5 469.5q24.5 -25.5 24.5 -65.5t-24.5 -65.5t-64.5 -25.5q-39 0 -64 25.5t-26 65.5q0 40 25 65.5t65 25.5t64.5 -25.5zM312 235q5 -77 -58 -154q-32 -38 -45.5 -58.5t-13.5 -43.5q0 -27 18.5 -42.5t54.5 -16.5q26 0 53 8t47 21l33 -109q-30 -18 -73.5 -29.5
t-93.5 -11.5q-94 0 -143 44.5t-49 111.5q0 35 12.5 64t26 46.5t47.5 55.5q27 31 39 59.5t12 62.5l-1 17h133z" />
    <glyph glyph-name="Agrave" unicode="&#xc0;" horiz-adv-x="656" 
d="M397 712h-122l-122 121h160zM175 0h-158l206 674h200l209 -674h-164l-52 173h-193zM352 430q-10 34 -29 110l-5 20h-2l-12 -52q-13 -58 -19 -78l-40 -143h149z" />
    <glyph glyph-name="Aacute" unicode="&#xc1;" horiz-adv-x="656" 
d="M375 710h-122l84 123h160zM175 0h-158l206 674h200l209 -674h-164l-52 173h-193zM352 430q-10 34 -29 110l-5 20h-2l-12 -52q-13 -58 -19 -78l-40 -143h149z" />
    <glyph glyph-name="Acircumflex" unicode="&#xc2;" horiz-adv-x="656" 
d="M486 710h-107l-50 62h-2l-50 -62h-106l100 123h114zM175 0h-158l206 674h200l209 -674h-164l-52 173h-193zM352 430q-10 34 -29 110l-5 20h-2l-12 -52q-13 -58 -19 -78l-40 -143h149z" />
    <glyph glyph-name="Atilde" unicode="&#xc3;" horiz-adv-x="656" 
d="M210 809q21 33 58 33q18 0 32.5 -5t31.5 -15q30 -19 44 -19q13 0 18.5 9t8.5 34h68q2 -66 -18 -95.5t-61 -29.5q-31 0 -65 19q-6 3 -19 10.5t-23 7.5t-16.5 -11t-7.5 -32h-70q-2 61 19 94zM175 0h-158l206 674h200l209 -674h-164l-52 173h-193zM352 430q-10 34 -29 110
l-5 20h-2l-12 -52q-13 -58 -19 -78l-40 -143h149z" />
    <glyph glyph-name="Adieresis" unicode="&#xc4;" horiz-adv-x="656" 
d="M179 732.5q-20 20.5 -20 48.5q0 29 20 48.5t49 19.5q28 0 47 -19.5t19 -48.5q0 -28 -19 -48.5t-47 -20.5q-29 0 -49 20.5zM386.5 732.5q-19.5 20.5 -19.5 48.5q0 29 19.5 48.5t48.5 19.5t48 -19.5t19 -48.5q0 -28 -19 -48.5t-48 -20.5t-48.5 20.5zM175 0h-158l206 674
h200l209 -674h-164l-52 173h-193zM352 430q-10 34 -29 110l-5 20h-2l-12 -52q-13 -58 -19 -78l-40 -143h149z" />
    <glyph glyph-name="Aring" unicode="&#xc5;" horiz-adv-x="656" 
d="M409.5 870q29.5 -28 29.5 -71q0 -42 -30.5 -69.5t-83.5 -27.5t-84.5 27.5t-31.5 68.5q0 42 31 71t85 29q55 0 84.5 -28zM291 832.5q-11 -14.5 -11 -34.5q0 -18 12 -31.5t31 -13.5q21 0 33 13t12 33t-12 34t-33 14t-32 -14.5zM175 0h-158l206 674h200l209 -674h-164
l-52 173h-193zM352 430q-10 34 -29 110l-5 20h-2l-12 -52q-13 -58 -19 -78l-40 -143h149z" />
    <glyph glyph-name="AE" unicode="&#xc6;" horiz-adv-x="868" 
d="M290 674h513v-125h-277l18 -143h255v-124h-235l20 -157h256v-125h-387l-24 184h-196l-74 -184h-157zM392 469l-12 98h-3l-34 -99l-65 -162h134z" />
    <glyph glyph-name="Ccedilla" unicode="&#xc7;" horiz-adv-x="595" 
d="M495.5 -0.5q-42.5 -8.5 -95.5 -9.5l-17 -34q32 -7 52.5 -28t20.5 -54q0 -48 -35 -70t-84 -22q-52 0 -86 19l20 62q11 -6 27 -10t29 -4q16 0 26 6t10 18q0 16 -18.5 24.5t-60.5 13.5l38 83q-139 18 -213 108.5t-74 224.5q0 112 48.5 193t132.5 123t187 42q55 0 99 -9
t67 -21l-31 -121q-60 25 -128 25q-95 0 -155 -57.5t-60 -165.5q0 -102 57.5 -161t158.5 -59q33 0 68.5 6.5t58.5 15.5l23 -119q-23 -11 -65.5 -19.5z" />
    <glyph glyph-name="Egrave" unicode="&#xc8;" horiz-adv-x="534" 
d="M355 712h-122l-122 121h160zM219 285v-160h277v-125h-430v674h416v-125h-263v-140h248v-124h-248z" />
    <glyph glyph-name="Eacute" unicode="&#xc9;" horiz-adv-x="534" 
d="M326 710h-121l84 123h160zM219 285v-160h277v-125h-430v674h416v-125h-263v-140h248v-124h-248z" />
    <glyph glyph-name="Ecircumflex" unicode="&#xca;" horiz-adv-x="534" 
d="M437 710h-107l-51 62h-2l-50 -62h-106l100 123h114zM219 285v-160h277v-125h-430v674h416v-125h-263v-140h248v-124h-248z" />
    <glyph glyph-name="Edieresis" unicode="&#xcb;" horiz-adv-x="534" 
d="M119 733q-20 20 -20 48q0 29 20.5 49t49.5 20q28 0 46.5 -20t18.5 -49q0 -28 -19 -48t-46 -20q-30 0 -50 20zM326.5 733q-19.5 20 -19.5 48q0 29 20 49t49 20q28 0 47.5 -20t19.5 -49q0 -28 -19.5 -48t-47.5 -20q-30 0 -49.5 20zM219 285v-160h277v-125h-430v674h416
v-125h-263v-140h248v-124h-248z" />
    <glyph glyph-name="Igrave" unicode="&#xcc;" horiz-adv-x="285" 
d="M216 712h-121l-123 121h160zM219 0h-153v674h153v-674z" />
    <glyph glyph-name="Iacute" unicode="&#xcd;" horiz-adv-x="285" 
d="M190 710h-122l85 123h160zM219 0h-153v674h153v-674z" />
    <glyph glyph-name="Icircumflex" unicode="&#xce;" horiz-adv-x="285" 
d="M300 710h-107l-50 62h-2l-50 -62h-106l100 123h114zM219 0h-153v674h153v-674z" />
    <glyph glyph-name="Idieresis" unicode="&#xcf;" horiz-adv-x="285" 
d="M-9.5 733q-19.5 20 -19.5 48q0 29 20 49t49 20q28 0 47 -20t19 -49q0 -28 -19 -48t-47 -20q-30 0 -49.5 20zM198.5 733q-19.5 20 -19.5 48q0 29 19.5 49t48.5 20q28 0 47.5 -20t19.5 -49q0 -28 -19 -48t-48 -20t-48.5 20zM219 0h-153v674h153v-674z" />
    <glyph glyph-name="Eth" unicode="&#xd0;" horiz-adv-x="704" 
d="M74 403v264q93 15 206 15q95 0 161 -17t115 -54q54 -40 83.5 -105t29.5 -152q0 -94 -29.5 -163t-81.5 -113q-53 -44 -132 -66t-179 -22q-97 0 -173 10v284h-71v119h71zM226 284v-172q14 -2 53 -2q108 0 168.5 59.5t60.5 179.5q0 107 -56 161t-157 54q-41 0 -69 -6v-155
h134v-119h-134z" />
    <glyph glyph-name="Ntilde" unicode="&#xd1;" horiz-adv-x="690" 
d="M226.5 809.5q20.5 32.5 58.5 32.5q30 0 63 -20q12 -7 24 -13t20 -6q13 0 19 9.5t8 33.5h69q1 -66 -19 -95.5t-60 -29.5q-31 0 -65 19q-7 4 -20 11t-23 7q-9 0 -15.5 -11t-8.5 -32h-70q-1 62 19.5 94.5zM66 674h178l140 -247q63 -112 110 -231h3q-13 116 -13 281v197h140
v-674h-160l-144 260q-71 128 -117 238l-3 -1q6 -133 6 -294v-203h-140v674z" />
    <glyph glyph-name="Ograve" unicode="&#xd2;" horiz-adv-x="717" 
d="M432 713h-121l-123 121h160zM535.5 639.5q72.5 -45.5 110 -123t37.5 -172.5q0 -109 -41.5 -189t-116.5 -123t-173 -43q-97 0 -169 45t-110 123t-38 175q0 101 40.5 181t115 126t172.5 46q100 0 172.5 -45.5zM239.5 500q-43.5 -64 -43.5 -165q0 -100 44.5 -162.5
t119.5 -62.5t118.5 64t43.5 165q0 62 -19 113t-56 81.5t-88 30.5q-76 0 -119.5 -64z" />
    <glyph glyph-name="Oacute" unicode="&#xd3;" horiz-adv-x="717" 
d="M411 711h-122l84 123h160zM535.5 639.5q72.5 -45.5 110 -123t37.5 -172.5q0 -109 -41.5 -189t-116.5 -123t-173 -43q-97 0 -169 45t-110 123t-38 175q0 101 40.5 181t115 126t172.5 46q100 0 172.5 -45.5zM239.5 500q-43.5 -64 -43.5 -165q0 -100 44.5 -162.5
t119.5 -62.5t118.5 64t43.5 165q0 62 -19 113t-56 81.5t-88 30.5q-76 0 -119.5 -64z" />
    <glyph glyph-name="Ocircumflex" unicode="&#xd4;" horiz-adv-x="717" 
d="M517 711h-107l-50 62h-2l-50 -62h-107l101 122h114zM535.5 639.5q72.5 -45.5 110 -123t37.5 -172.5q0 -109 -41.5 -189t-116.5 -123t-173 -43q-97 0 -169 45t-110 123t-38 175q0 101 40.5 181t115 126t172.5 46q100 0 172.5 -45.5zM239.5 500q-43.5 -64 -43.5 -165
q0 -100 44.5 -162.5t119.5 -62.5t118.5 64t43.5 165q0 62 -19 113t-56 81.5t-88 30.5q-76 0 -119.5 -64z" />
    <glyph glyph-name="Otilde" unicode="&#xd5;" horiz-adv-x="717" 
d="M238 809q21 33 58 33q18 0 31 -5t33 -15q30 -19 44 -19q12 0 18 9t9 33h68q2 -65 -18 -94.5t-61 -29.5q-18 0 -33 4.5t-32 13.5q-3 2 -12.5 7.5t-16.5 8t-13 2.5q-21 0 -24 -43h-70q-2 62 19 95zM535.5 639.5q72.5 -45.5 110 -123t37.5 -172.5q0 -109 -41.5 -189
t-116.5 -123t-173 -43q-97 0 -169 45t-110 123t-38 175q0 101 40.5 181t115 126t172.5 46q100 0 172.5 -45.5zM239.5 500q-43.5 -64 -43.5 -165q0 -100 44.5 -162.5t119.5 -62.5t118.5 64t43.5 165q0 62 -19 113t-56 81.5t-88 30.5q-76 0 -119.5 -64z" />
    <glyph glyph-name="Odieresis" unicode="&#xd6;" horiz-adv-x="717" 
d="M207 733q-20 20 -20 48q0 29 20 49t49 20q28 0 47 -20t19 -49q0 -28 -19 -48t-47 -20q-29 0 -49 20zM414.5 733q-19.5 20 -19.5 48q0 29 19.5 49t48.5 20t48 -20t19 -49q0 -28 -19 -48t-48 -20t-48.5 20zM535.5 639.5q72.5 -45.5 110 -123t37.5 -172.5q0 -109 -41.5 -189
t-116.5 -123t-173 -43q-97 0 -169 45t-110 123t-38 175q0 101 40.5 181t115 126t172.5 46q100 0 172.5 -45.5zM239.5 500q-43.5 -64 -43.5 -165q0 -100 44.5 -162.5t119.5 -62.5t118.5 64t43.5 165q0 62 -19 113t-56 81.5t-88 30.5q-76 0 -119.5 -64z" />
    <glyph glyph-name="multiply" unicode="&#xd7;" horiz-adv-x="596" 
d="M298 329l193 197l65 -67l-192 -196l192 -196l-66 -67l-192 196l-192 -196l-66 67l192 196l-192 196l65 67z" />
    <glyph glyph-name="Oslash" unicode="&#xd8;" horiz-adv-x="717" 
d="M128 83q-45 47 -69 112.5t-24 140.5q0 99 41 178.5t114.5 125t169.5 45.5q84 0 149 -35l55 81l87 -58l-57 -84q44 -47 66.5 -111.5t22.5 -136.5q0 -108 -41.5 -187.5t-115 -122t-167.5 -42.5q-79 0 -144 34l-61 -89l-82 64zM360 566q-80 0 -126 -63.5t-46 -165.5
q0 -65 26 -123h1l223 328q-35 24 -78 24zM359 108q79 0 125 63.5t46 167.5q0 57 -22 114l-3 1l-220 -323q31 -23 74 -23z" />
    <glyph glyph-name="Ugrave" unicode="&#xd9;" horiz-adv-x="682" 
d="M418 712h-122l-122 121h160zM218 286q0 -86 31.5 -130.5t90.5 -44.5q124 0 124 175v388h152v-378q0 -153 -73 -230t-208 -77q-131 0 -200.5 75.5t-69.5 233.5v376h153v-388z" />
    <glyph glyph-name="Uacute" unicode="&#xda;" horiz-adv-x="682" 
d="M386 710h-122l84 123h160zM218 286q0 -86 31.5 -130.5t90.5 -44.5q124 0 124 175v388h152v-378q0 -153 -73 -230t-208 -77q-131 0 -200.5 75.5t-69.5 233.5v376h153v-388z" />
    <glyph glyph-name="Ucircumflex" unicode="&#xdb;" horiz-adv-x="682" 
d="M509 710h-107l-50 62h-2l-50 -62h-106l100 123h114zM218 286q0 -86 31.5 -130.5t90.5 -44.5q124 0 124 175v388h152v-378q0 -153 -73 -230t-208 -77q-131 0 -200.5 75.5t-69.5 233.5v376h153v-388z" />
    <glyph glyph-name="Udieresis" unicode="&#xdc;" horiz-adv-x="682" 
d="M194.5 733q-19.5 20 -19.5 48q0 29 20 49t49 20q28 0 47 -20t19 -49q0 -28 -19 -48t-47 -20q-30 0 -49.5 20zM402.5 733q-19.5 20 -19.5 48q0 29 19.5 49t48.5 20q28 0 47.5 -20t19.5 -49q0 -28 -19 -48t-48 -20t-48.5 20zM218 286q0 -86 31.5 -130.5t90.5 -44.5
q124 0 124 175v388h152v-378q0 -153 -73 -230t-208 -77q-131 0 -200.5 75.5t-69.5 233.5v376h153v-388z" />
    <glyph glyph-name="Yacute" unicode="&#xdd;" horiz-adv-x="603" 
d="M357 708h-122l84 124h160zM222 276l-213 398h174l69 -162q22 -51 52 -129h2q17 46 51 129l68 162h171l-222 -393v-281h-152v276z" />
    <glyph glyph-name="Thorn" unicode="&#xde;" horiz-adv-x="580" 
d="M217 674v-121q27 3 82 3q61 0 106.5 -12.5t78.5 -40.5q31 -26 48 -64t17 -82q0 -117 -73.5 -173t-190.5 -56q-42 0 -68 4v-132h-151v674h151zM279 246q59 0 89.5 27t30.5 72q0 46 -30.5 71t-85.5 25q-39 0 -66 -5v-185q25 -5 62 -5z" />
    <glyph glyph-name="germandbls" unicode="&#xdf;" horiz-adv-x="600" 
d="M61 431q0 83 19.5 137.5t57.5 89.5q66 63 180 63q61 0 110 -23t77 -65t28 -97q0 -23 -6.5 -45.5t-17.5 -36.5q-28 -14 -42.5 -32t-14.5 -37q0 -18 8 -33t26 -34q25 -27 40.5 -46t27 -47.5t11.5 -63.5q0 -78 -53.5 -125t-147.5 -47q-30 0 -59 4t-48 12l19 112
q32 -14 69 -14q31 0 49 14.5t18 37.5q0 17 -8.5 32.5t-27.5 35.5q-37 38 -57 68.5t-20 73.5q0 38 21 70.5t60 53.5q7 19 7 35q0 35 -21.5 58t-56.5 23q-96 0 -96 -161v-444h-152v431z" />
    <glyph glyph-name="agrave" unicode="&#xe0;" horiz-adv-x="528" 
d="M327 550h-104l-123 152h141zM330 49h-3q-24 -29 -60 -44.5t-80 -15.5q-48 0 -84 21t-55 55t-19 74q0 93 76.5 140.5t210.5 46.5v7q0 25 -19.5 44t-69.5 19q-36 0 -73 -10.5t-62 -26.5l-28 98q31 17 80.5 30t109.5 13q114 0 164.5 -58t50.5 -153v-170q0 -81 7 -119h-137z
M217.5 214q-38.5 -18 -38.5 -60q0 -28 16.5 -43t43.5 -15q28 0 49.5 16t29.5 40q3 12 3 26v53q-65 1 -103.5 -17z" />
    <glyph glyph-name="aacute" unicode="&#xe1;" horiz-adv-x="528" 
d="M300 550h-105l86 152h141zM330 49h-3q-24 -29 -60 -44.5t-80 -15.5q-48 0 -84 21t-55 55t-19 74q0 93 76.5 140.5t210.5 46.5v7q0 25 -19.5 44t-69.5 19q-36 0 -73 -10.5t-62 -26.5l-28 98q31 17 80.5 30t109.5 13q114 0 164.5 -58t50.5 -153v-170q0 -81 7 -119h-137z
M217.5 214q-38.5 -18 -38.5 -60q0 -28 16.5 -43t43.5 -15q28 0 49.5 16t29.5 40q3 12 3 26v53q-65 1 -103.5 -17z" />
    <glyph glyph-name="acircumflex" unicode="&#xe2;" horiz-adv-x="528" 
d="M411 550h-99l-50 87h-2l-51 -87h-99l100 152h102zM330 49h-3q-24 -29 -60 -44.5t-80 -15.5q-48 0 -84 21t-55 55t-19 74q0 93 76.5 140.5t210.5 46.5v7q0 25 -19.5 44t-69.5 19q-36 0 -73 -10.5t-62 -26.5l-28 98q31 17 80.5 30t109.5 13q114 0 164.5 -58t50.5 -153v-170
q0 -81 7 -119h-137zM217.5 214q-38.5 -18 -38.5 -60q0 -28 16.5 -43t43.5 -15q28 0 49.5 16t29.5 40q3 12 3 26v53q-65 1 -103.5 -17z" />
    <glyph glyph-name="atilde" unicode="&#xe3;" horiz-adv-x="528" 
d="M133.5 654.5q22.5 34.5 61.5 34.5q17 0 31 -5t34 -15q3 -2 12.5 -8t16.5 -9t13 -3q13 0 19 9.5t7 35.5h70q4 -129 -82 -129q-19 0 -33 5.5t-36 16.5q-5 3 -13 7.5t-13.5 6.5t-11.5 2q-22 0 -24 -45h-72q-2 62 20.5 96.5zM330 49h-3q-24 -29 -60 -44.5t-80 -15.5
q-48 0 -84 21t-55 55t-19 74q0 93 76.5 140.5t210.5 46.5v7q0 25 -19.5 44t-69.5 19q-36 0 -73 -10.5t-62 -26.5l-28 98q31 17 80.5 30t109.5 13q114 0 164.5 -58t50.5 -153v-170q0 -81 7 -119h-137zM217.5 214q-38.5 -18 -38.5 -60q0 -28 16.5 -43t43.5 -15q28 0 49.5 16
t29.5 40q3 12 3 26v53q-65 1 -103.5 -17z" />
    <glyph glyph-name="adieresis" unicode="&#xe4;" horiz-adv-x="528" 
d="M109 577.5q-21 20.5 -21 49.5q0 30 21 50.5t51 20.5q29 0 48.5 -20t19.5 -51q0 -29 -19.5 -49.5t-48.5 -20.5q-30 0 -51 20.5zM319.5 577.5q-20.5 20.5 -20.5 49.5q0 31 20.5 51t50.5 20q29 0 49 -20t20 -51q0 -29 -19.5 -49.5t-49.5 -20.5t-50.5 20.5zM330 49h-3
q-24 -29 -60 -44.5t-80 -15.5q-48 0 -84 21t-55 55t-19 74q0 93 76.5 140.5t210.5 46.5v7q0 25 -19.5 44t-69.5 19q-36 0 -73 -10.5t-62 -26.5l-28 98q31 17 80.5 30t109.5 13q114 0 164.5 -58t50.5 -153v-170q0 -81 7 -119h-137zM217.5 214q-38.5 -18 -38.5 -60
q0 -28 16.5 -43t43.5 -15q28 0 49.5 16t29.5 40q3 12 3 26v53q-65 1 -103.5 -17z" />
    <glyph glyph-name="aring" unicode="&#xe5;" horiz-adv-x="528" 
d="M182 566.5q-32 27.5 -32 68.5q0 44 31.5 72.5t85.5 28.5q53 0 82.5 -28t29.5 -72q0 -42 -31 -69.5t-82 -27.5q-52 0 -84 27.5zM299 603q12 14 12 34t-12.5 34.5t-34.5 14.5q-21 0 -32.5 -15t-11.5 -35q0 -18 12.5 -32.5t32.5 -14.5q22 0 34 14zM330 49h-3
q-24 -29 -60 -44.5t-80 -15.5q-48 0 -84 21t-55 55t-19 74q0 93 76.5 140.5t210.5 46.5v7q0 25 -19.5 44t-69.5 19q-36 0 -73 -10.5t-62 -26.5l-28 98q31 17 80.5 30t109.5 13q114 0 164.5 -58t50.5 -153v-170q0 -81 7 -119h-137zM217.5 214q-38.5 -18 -38.5 -60
q0 -28 16.5 -43t43.5 -15q28 0 49.5 16t29.5 40q3 12 3 26v53q-65 1 -103.5 -17z" />
    <glyph glyph-name="ae" unicode="&#xe6;" horiz-adv-x="803" 
d="M498 129.5q36 -27.5 94 -27.5q43 0 74.5 6.5t62.5 19.5l21 -102q-71 -37 -180 -37q-62 0 -112 23t-74 64h-4q-64 -87 -182 -87q-52 0 -90 20.5t-58.5 55.5t-20.5 77q0 88 78 134.5t211 45.5v14q0 10 -8 23.5t-29 24.5t-56 11t-70 -11t-61 -26l-30 96q34 19 79 32.5
t94 13.5q116 0 161 -79h3q29 38 71.5 58.5t95.5 20.5q69 0 115 -34.5t68 -90t22 -118.5q0 -18 -3 -54h-310q2 -46 38 -73.5zM615 370q-19 31 -65 31q-30 0 -50 -15.5t-30 -38t-11 -42.5h174q1 34 -18 65zM217.5 211q-39.5 -19 -39.5 -58q0 -27 18 -42t45 -15t47 14.5
t30 36.5q4 8 4 31v51q-65 1 -104.5 -18z" />
    <glyph glyph-name="ccedilla" unicode="&#xe7;" horiz-adv-x="451" 
d="M380 -2q-30 -6 -64 -7l-19 -35q30 -3 51 -23t21 -49q0 -46 -34 -67t-87 -21q-48 0 -81 20l20 57q31 -17 55 -17q15 0 25.5 6.5t9.5 19.5q0 30 -77 36l37 76q-95 15 -149.5 80t-54.5 166q0 73 32.5 132t96 93.5t151.5 34.5q65 0 116 -19l-24 -113q-34 15 -85 15
q-60 0 -96 -38.5t-35 -98.5q0 -65 38 -101t96 -36q49 0 87 15l18 -112q-18 -8 -48 -14z" />
    <glyph glyph-name="egrave" unicode="&#xe8;" horiz-adv-x="528" 
d="M346 550h-104l-122 152h140zM220.5 127q38.5 -24 95.5 -24q72 0 135 20l20 -103q-75 -30 -177 -30q-123 0 -192 66.5t-69 182.5q0 65 27.5 125t83 98t136.5 38q75 0 124 -34.5t71.5 -89.5t22.5 -120q0 -32 -5 -60h-315q4 -45 42.5 -69zM337.5 368q-19.5 31 -66.5 31
q-43 0 -66.5 -30.5t-27.5 -68.5h180q0 37 -19.5 68z" />
    <glyph glyph-name="eacute" unicode="&#xe9;" horiz-adv-x="528" 
d="M319 550h-105l86 152h141zM220.5 127q38.5 -24 95.5 -24q72 0 135 20l20 -103q-75 -30 -177 -30q-123 0 -192 66.5t-69 182.5q0 65 27.5 125t83 98t136.5 38q75 0 124 -34.5t71.5 -89.5t22.5 -120q0 -32 -5 -60h-315q4 -45 42.5 -69zM337.5 368q-19.5 31 -66.5 31
q-43 0 -66.5 -30.5t-27.5 -68.5h180q0 37 -19.5 68z" />
    <glyph glyph-name="ecircumflex" unicode="&#xea;" horiz-adv-x="528" 
d="M425 550h-99l-50 87h-2l-50 -87h-100l100 152h102zM220.5 127q38.5 -24 95.5 -24q72 0 135 20l20 -103q-75 -30 -177 -30q-123 0 -192 66.5t-69 182.5q0 65 27.5 125t83 98t136.5 38q75 0 124 -34.5t71.5 -89.5t22.5 -120q0 -32 -5 -60h-315q4 -45 42.5 -69zM337.5 368
q-19.5 31 -66.5 31q-43 0 -66.5 -30.5t-27.5 -68.5h180q0 37 -19.5 68z" />
    <glyph glyph-name="edieresis" unicode="&#xeb;" horiz-adv-x="528" 
d="M125 577.5q-21 20.5 -21 49.5q0 30 21 50.5t51 20.5q29 0 48.5 -20t19.5 -51q0 -29 -19.5 -49.5t-48.5 -20.5q-30 0 -51 20.5zM335.5 577.5q-20.5 20.5 -20.5 49.5q0 31 20.5 51t50.5 20q29 0 49 -20t20 -51q0 -29 -19.5 -49.5t-49.5 -20.5t-50.5 20.5zM220.5 127
q38.5 -24 95.5 -24q72 0 135 20l20 -103q-75 -30 -177 -30q-123 0 -192 66.5t-69 182.5q0 65 27.5 125t83 98t136.5 38q75 0 124 -34.5t71.5 -89.5t22.5 -120q0 -32 -5 -60h-315q4 -45 42.5 -69zM337.5 368q-19.5 31 -66.5 31q-43 0 -66.5 -30.5t-27.5 -68.5h180
q0 37 -19.5 68z" />
    <glyph glyph-name="igrave" unicode="&#xec;" horiz-adv-x="274" 
d="M196 550h-104l-122 152h140zM61 489h152v-489h-152v489z" />
    <glyph glyph-name="iacute" unicode="&#xed;" horiz-adv-x="274" 
d="M177 550h-105l86 152h141zM61 489h152v-489h-152v489z" />
    <glyph glyph-name="icircumflex" unicode="&#xee;" horiz-adv-x="274" 
d="M288 550h-99l-51 87h-2l-50 -87h-99l99 152h102zM61 489h152v-489h-152v489z" />
    <glyph glyph-name="idieresis" unicode="&#xef;" horiz-adv-x="274" 
d="M-18 577.5q-21 20.5 -21 49.5q0 30 21 50.5t51 20.5q29 0 48.5 -20t19.5 -51q0 -29 -19.5 -49.5t-48.5 -20.5q-30 0 -51 20.5zM192.5 577.5q-20.5 20.5 -20.5 49.5q0 31 20.5 51t50.5 20q29 0 49 -20t20 -51q0 -29 -19.5 -49.5t-49.5 -20.5t-50.5 20.5zM61 489h152v-489
h-152v489z" />
    <glyph glyph-name="eth" unicode="&#xf0;" horiz-adv-x="574" 
d="M185 585q-35 23 -94 48l66 85q81 -29 158 -80l138 60l30 -59l-106 -45q80 -63 123 -151q41 -79 41 -186q0 -88 -35.5 -148.5t-94 -90t-125.5 -29.5q-72 0 -129.5 30.5t-90.5 86.5t-33 131q0 71 32 125t86.5 83t118.5 29q37 0 66 -20l2 2q-38 51 -87 84l-144 -62l-27 60z
M358.5 137.5q25.5 39.5 25.5 104.5q0 76 -24 106q-26 33 -71 33q-51 0 -75 -44t-24 -99q0 -60 26 -100t71 -40q46 0 71.5 39.5z" />
    <glyph glyph-name="ntilde" unicode="&#xf1;" horiz-adv-x="586" 
d="M172 654.5q22 34.5 62 34.5q17 0 31 -5t34 -15q3 -2 12.5 -8t16.5 -9t13 -3q12 0 18 9.5t8 35.5h70q4 -129 -82 -129q-19 0 -33 5.5t-36 16.5q-4 2 -12.5 7t-14 7t-11.5 2q-22 0 -24 -45h-72q-2 62 20 96.5zM57 489h132l7 -67h3q19 30 58 54t93 24q79 0 127 -53t48 -157
v-290h-152v271q0 50 -18.5 78t-58.5 28q-29 0 -48.5 -16.5t-28.5 -40.5q-6 -13 -6 -38v-282h-152v333q0 70 -4 156z" />
    <glyph glyph-name="ograve" unicode="&#xf2;" horiz-adv-x="577" 
d="M359 550h-104l-122 152h140zM425 468.5q57 -31.5 88 -88.5t31 -130q0 -86 -36 -144.5t-95 -87.5t-127 -29q-72 0 -129.5 30.5t-90.5 87.5t-33 134q0 78 32.5 136.5t91.5 90.5t137 32q74 0 131 -31.5zM214.5 349q-24.5 -43 -24.5 -104q0 -65 26.5 -106t73.5 -41
q44 0 70.5 40.5t26.5 106.5q0 61 -24.5 104t-72.5 43q-51 0 -75.5 -43z" />
    <glyph glyph-name="oacute" unicode="&#xf3;" horiz-adv-x="577" 
d="M326 550h-105l86 152h141zM425 468.5q57 -31.5 88 -88.5t31 -130q0 -86 -36 -144.5t-95 -87.5t-127 -29q-72 0 -129.5 30.5t-90.5 87.5t-33 134q0 78 32.5 136.5t91.5 90.5t137 32q74 0 131 -31.5zM214.5 349q-24.5 -43 -24.5 -104q0 -65 26.5 -106t73.5 -41
q44 0 70.5 40.5t26.5 106.5q0 61 -24.5 104t-72.5 43q-51 0 -75.5 -43z" />
    <glyph glyph-name="ocircumflex" unicode="&#xf4;" horiz-adv-x="577" 
d="M439 550h-99l-50 87h-2l-50 -87h-100l100 152h102zM425 468.5q57 -31.5 88 -88.5t31 -130q0 -86 -36 -144.5t-95 -87.5t-127 -29q-72 0 -129.5 30.5t-90.5 87.5t-33 134q0 78 32.5 136.5t91.5 90.5t137 32q74 0 131 -31.5zM214.5 349q-24.5 -43 -24.5 -104
q0 -65 26.5 -106t73.5 -41q44 0 70.5 40.5t26.5 106.5q0 61 -24.5 104t-72.5 43q-51 0 -75.5 -43z" />
    <glyph glyph-name="otilde" unicode="&#xf5;" horiz-adv-x="577" 
d="M166 654.5q22 34.5 62 34.5q17 0 31 -5t34 -15q3 -2 12.5 -8t16.5 -9t13 -3q12 0 18 9.5t8 35.5h70q4 -129 -82 -129q-19 0 -33 5.5t-36 16.5q-4 2 -12.5 7t-14 7t-11.5 2q-22 0 -24 -45h-72q-2 62 20 96.5zM425 468.5q57 -31.5 88 -88.5t31 -130q0 -86 -36 -144.5
t-95 -87.5t-127 -29q-72 0 -129.5 30.5t-90.5 87.5t-33 134q0 78 32.5 136.5t91.5 90.5t137 32q74 0 131 -31.5zM214.5 349q-24.5 -43 -24.5 -104q0 -65 26.5 -106t73.5 -41q44 0 70.5 40.5t26.5 106.5q0 61 -24.5 104t-72.5 43q-51 0 -75.5 -43z" />
    <glyph glyph-name="odieresis" unicode="&#xf6;" horiz-adv-x="577" 
d="M133 577.5q-21 20.5 -21 49.5q0 30 21 50.5t51 20.5q29 0 48.5 -20t19.5 -51q0 -29 -19.5 -49.5t-48.5 -20.5q-30 0 -51 20.5zM343.5 577.5q-20.5 20.5 -20.5 49.5q0 31 20.5 51t50.5 20q29 0 49 -20t20 -51q0 -29 -19.5 -49.5t-49.5 -20.5t-50.5 20.5zM425 468.5
q57 -31.5 88 -88.5t31 -130q0 -86 -36 -144.5t-95 -87.5t-127 -29q-72 0 -129.5 30.5t-90.5 87.5t-33 134q0 78 32.5 136.5t91.5 90.5t137 32q74 0 131 -31.5zM214.5 349q-24.5 -43 -24.5 -104q0 -65 26.5 -106t73.5 -41q44 0 70.5 40.5t26.5 106.5q0 61 -24.5 104t-72.5 43
q-51 0 -75.5 -43z" />
    <glyph glyph-name="divide" unicode="&#xf7;" horiz-adv-x="596" 
d="M245 389.5q-20 20.5 -20 52.5q0 34 20 54.5t53 20.5t52.5 -20t20.5 -55q0 -33 -20 -53t-53 -20t-53 20.5zM40 314h516v-94h-516v94zM245 37.5q-20 20.5 -20 53.5q0 34 20.5 54t52.5 20q33 0 52.5 -20t20.5 -54q0 -33 -20 -53.5t-53 -20.5t-53 20.5z" />
    <glyph glyph-name="oslash" unicode="&#xf8;" horiz-adv-x="577" 
d="M407 474l47 69l53 -37l-45 -67q40 -34 61 -83t21 -110q0 -83 -36 -141t-94.5 -87t-124.5 -29q-67 0 -116 26l-49 -71l-50 40l44 65q-41 33 -63 82.5t-22 112.5q0 76 32 134t90 90t133 32q70 0 119 -26zM288 392q-55 0 -82 -44t-27 -103q0 -48 18 -78l2 -1l143 208
q-25 18 -54 18zM288 98q50 0 79.5 39.5t29.5 104.5q0 45 -15 76l-3 1l-142 -203q19 -18 51 -18z" />
    <glyph glyph-name="ugrave" unicode="&#xf9;" horiz-adv-x="583" 
d="M358 550h-104l-122 152h140zM526 0h-132l-7 69h-3q-20 -31 -57.5 -55.5t-95.5 -24.5q-79 0 -125.5 52.5t-46.5 160.5v287h153v-263q0 -114 76 -114q29 0 48 15.5t28 37.5q5 11 5 33v291h153v-332q0 -75 4 -157z" />
    <glyph glyph-name="uacute" unicode="&#xfa;" horiz-adv-x="583" 
d="M334 550h-105l86 152h141zM526 0h-132l-7 69h-3q-20 -31 -57.5 -55.5t-95.5 -24.5q-79 0 -125.5 52.5t-46.5 160.5v287h153v-263q0 -114 76 -114q29 0 48 15.5t28 37.5q5 11 5 33v291h153v-332q0 -75 4 -157z" />
    <glyph glyph-name="ucircumflex" unicode="&#xfb;" horiz-adv-x="583" 
d="M442 550h-99l-50 87h-2l-50 -87h-99l99 152h102zM526 0h-132l-7 69h-3q-20 -31 -57.5 -55.5t-95.5 -24.5q-79 0 -125.5 52.5t-46.5 160.5v287h153v-263q0 -114 76 -114q29 0 48 15.5t28 37.5q5 11 5 33v291h153v-332q0 -75 4 -157z" />
    <glyph glyph-name="udieresis" unicode="&#xfc;" horiz-adv-x="583" 
d="M140 577.5q-21 20.5 -21 49.5q0 30 21 50.5t51 20.5q29 0 48.5 -20t19.5 -51q0 -29 -19.5 -49.5t-48.5 -20.5q-30 0 -51 20.5zM350.5 577.5q-20.5 20.5 -20.5 49.5q0 31 20.5 51t50.5 20q29 0 49 -20t20 -51q0 -29 -19.5 -49.5t-49.5 -20.5t-50.5 20.5zM526 0h-132l-7 69
h-3q-20 -31 -57.5 -55.5t-95.5 -24.5q-79 0 -125.5 52.5t-46.5 160.5v287h153v-263q0 -114 76 -114q29 0 48 15.5t28 37.5q5 11 5 33v291h153v-332q0 -75 4 -157z" />
    <glyph glyph-name="yacute" unicode="&#xfd;" horiz-adv-x="523" 
d="M315 550h-105l86 152h141zM248 249q18 -67 24 -91h3q9 33 13 53l9 38l60 240h163l-114 -322q-50 -140 -89.5 -211t-82.5 -110q-65 -56 -147 -67l-32 129q31 5 66 26q17 9 34.5 25.5t28.5 35.5q8 11 8 22t-7 25l-179 447h169z" />
    <glyph glyph-name="thorn" unicode="&#xfe;" horiz-adv-x="598" 
d="M213 429h2q48 71 151 71q52 0 97.5 -30t73 -87t27.5 -134q0 -86 -32.5 -144.5t-83 -87t-104.5 -28.5q-43 0 -76 15.5t-53 41.5h-2v-244h-152v908h152v-281zM217 175.5q4 -13.5 10 -22.5q11 -21 32.5 -34t46.5 -13q47 0 75.5 38t28.5 103q0 59 -27 96.5t-73 37.5
q-29 0 -52 -14.5t-35 -41.5q-4 -8 -7 -20t-3 -21v-84q0 -11 4 -24.5z" />
    <glyph glyph-name="ydieresis" unicode="&#xff;" horiz-adv-x="523" 
d="M118 577.5q-21 20.5 -21 49.5q0 31 20.5 51t51.5 20q29 0 48.5 -20t19.5 -51q0 -29 -19.5 -49.5t-48.5 -20.5q-30 0 -51 20.5zM328.5 577.5q-20.5 20.5 -20.5 49.5q0 31 20 51t51 20q29 0 49 -20t20 -51q0 -29 -19.5 -49.5t-49.5 -20.5t-50.5 20.5zM248 249
q18 -67 24 -91h3q9 33 13 53l9 38l60 240h163l-114 -322q-50 -140 -89.5 -211t-82.5 -110q-65 -56 -147 -67l-32 129q31 5 66 26q17 9 34.5 25.5t28.5 35.5q8 11 8 22t-7 25l-179 447h169z" />
    <glyph glyph-name="Amacron" unicode="&#x100;" horiz-adv-x="656" 
d="M453 734h-259v81h259v-81zM175 0h-158l206 674h200l209 -674h-164l-52 173h-193zM352 430q-10 34 -29 110l-5 20h-2l-12 -52q-13 -58 -19 -78l-40 -143h149z" />
    <glyph glyph-name="amacron" unicode="&#x101;" horiz-adv-x="528" 
d="M390 582h-250v83h250v-83zM330 49h-3q-24 -29 -60 -44.5t-80 -15.5q-48 0 -84 21t-55 55t-19 74q0 93 76.5 140.5t210.5 46.5v7q0 25 -19.5 44t-69.5 19q-36 0 -73 -10.5t-62 -26.5l-28 98q31 17 80.5 30t109.5 13q114 0 164.5 -58t50.5 -153v-170q0 -81 7 -119h-137z
M217.5 214q-38.5 -18 -38.5 -60q0 -28 16.5 -43t43.5 -15q28 0 49.5 16t29.5 40q3 12 3 26v53q-65 1 -103.5 -17z" />
    <glyph glyph-name="Abreve" unicode="&#x102;" horiz-adv-x="656" 
d="M283 801q14 -13 42 -13q53 0 63 46h78q-2 -58 -37 -92t-103 -34q-70 0 -104.5 34t-35.5 92h80q3 -20 17 -33zM175 0h-158l206 674h200l209 -674h-164l-52 173h-193zM352 430q-10 34 -29 110l-5 20h-2l-12 -52q-13 -58 -19 -78l-40 -143h149z" />
    <glyph glyph-name="abreve" unicode="&#x103;" horiz-adv-x="528" 
d="M223 647.5q15 -16.5 40 -16.5q29 0 44 17.5t17 43.5h79q-1 -65 -37 -103.5t-103 -38.5t-102 39.5t-36 102.5h79q4 -28 19 -44.5zM330 49h-3q-24 -29 -60 -44.5t-80 -15.5q-48 0 -84 21t-55 55t-19 74q0 93 76.5 140.5t210.5 46.5v7q0 25 -19.5 44t-69.5 19
q-36 0 -73 -10.5t-62 -26.5l-28 98q31 17 80.5 30t109.5 13q114 0 164.5 -58t50.5 -153v-170q0 -81 7 -119h-137zM217.5 214q-38.5 -18 -38.5 -60q0 -28 16.5 -43t43.5 -15q28 0 49.5 16t29.5 40q3 12 3 26v53q-65 1 -103.5 -17z" />
    <glyph glyph-name="Aogonek" unicode="&#x104;" horiz-adv-x="656" 
d="M552 0q-26 -42 -26 -68q0 -25 16 -40.5t39 -15.5q27 0 43 7l22 -70q-20 -15 -48.5 -23.5t-53.5 -8.5q-53 0 -83 27t-30 80q0 49 37 113l-52 172h-193l-48 -173h-158l206 674h200l209 -674h-80zM352 430q-10 34 -29 110l-5 20h-2l-12 -52q-13 -58 -19 -78l-40 -143h149z
" />
    <glyph glyph-name="aogonek" unicode="&#x105;" horiz-adv-x="528" 
d="M144.5 487q49.5 13 109.5 13q114 0 164.5 -58t50.5 -153v-170q0 -83 8 -119h-55q-21 -42 -21 -71q0 -24 13.5 -38t34.5 -14q22 0 44 10l22 -72q-46 -34 -106 -34q-46 0 -74.5 26.5t-28.5 75.5q0 33 9 59t24 59l-9 48h-3q-24 -29 -60 -44.5t-80 -15.5q-48 0 -84 21t-55 55
t-19 74q0 93 76.5 140.5t210.5 46.5v7q0 25 -19.5 44t-69.5 19q-36 0 -73 -10.5t-62 -26.5l-28 98q31 17 80.5 30zM217.5 214q-38.5 -18 -38.5 -60q0 -28 16.5 -43t43.5 -15q28 0 49.5 16t29.5 40q3 12 3 26v53q-65 1 -103.5 -17z" />
    <glyph glyph-name="Cacute" unicode="&#x106;" horiz-adv-x="595" 
d="M415 711h-122l84 123h160zM491 -1.5q-46 -8.5 -103 -8.5q-113 0 -192.5 43.5t-120 119.5t-40.5 174q0 112 48.5 193t132.5 123t187 42q55 0 99 -9t67 -21l-31 -121q-60 25 -128 25q-95 0 -155 -57.5t-60 -165.5q0 -102 57.5 -161t158.5 -59q33 0 68.5 6.5t58.5 15.5
l23 -119q-24 -12 -70 -20.5z" />
    <glyph glyph-name="cacute" unicode="&#x107;" horiz-adv-x="451" 
d="M310 550h-105l86 152h141zM370.5 -4q-36.5 -6 -78.5 -6q-78 0 -137 30.5t-90.5 87t-31.5 132.5q0 73 32.5 132t96 93.5t151.5 34.5q65 0 116 -19l-24 -113q-34 15 -85 15q-60 0 -96 -38.5t-35 -98.5q0 -65 38 -101t96 -36q49 0 87 15l18 -112q-21 -10 -57.5 -16z" />
    <glyph glyph-name="Ccircumflex" unicode="&#x108;" horiz-adv-x="595" 
d="M526 714h-107l-50 62h-2l-51 -62h-106l101 122h114zM491 -1.5q-46 -8.5 -103 -8.5q-113 0 -192.5 43.5t-120 119.5t-40.5 174q0 112 48.5 193t132.5 123t187 42q55 0 99 -9t67 -21l-31 -121q-60 25 -128 25q-95 0 -155 -57.5t-60 -165.5q0 -102 57.5 -161t158.5 -59
q33 0 68.5 6.5t58.5 15.5l23 -119q-24 -12 -70 -20.5z" />
    <glyph glyph-name="ccircumflex" unicode="&#x109;" horiz-adv-x="451" 
d="M416 550h-99l-51 87h-2l-50 -87h-99l99 152h103zM370.5 -4q-36.5 -6 -78.5 -6q-78 0 -137 30.5t-90.5 87t-31.5 132.5q0 73 32.5 132t96 93.5t151.5 34.5q65 0 116 -19l-24 -113q-34 15 -85 15q-60 0 -96 -38.5t-35 -98.5q0 -65 38 -101t96 -36q49 0 87 15l18 -112
q-21 -10 -57.5 -16z" />
    <glyph glyph-name="Cdotaccent" unicode="&#x10a;" horiz-adv-x="595" 
d="M319 732.5q-20 20.5 -20 48.5q0 29 20.5 49t49.5 20q28 0 47.5 -20t19.5 -49q0 -28 -19.5 -48.5t-47.5 -20.5q-30 0 -50 20.5zM491 -1.5q-46 -8.5 -103 -8.5q-113 0 -192.5 43.5t-120 119.5t-40.5 174q0 112 48.5 193t132.5 123t187 42q55 0 99 -9t67 -21l-31 -121
q-60 25 -128 25q-95 0 -155 -57.5t-60 -165.5q0 -102 57.5 -161t158.5 -59q33 0 68.5 6.5t58.5 15.5l23 -119q-24 -12 -70 -20.5z" />
    <glyph glyph-name="cdotaccent" unicode="&#x10b;" horiz-adv-x="451" 
d="M227.5 577.5q-20.5 20.5 -20.5 49.5q0 31 20.5 51t50.5 20q29 0 48.5 -20t19.5 -51q0 -29 -19.5 -49.5t-48.5 -20.5q-30 0 -50.5 20.5zM370.5 -4q-36.5 -6 -78.5 -6q-78 0 -137 30.5t-90.5 87t-31.5 132.5q0 73 32.5 132t96 93.5t151.5 34.5q65 0 116 -19l-24 -113
q-34 15 -85 15q-60 0 -96 -38.5t-35 -98.5q0 -65 38 -101t96 -36q49 0 87 15l18 -112q-21 -10 -57.5 -16z" />
    <glyph glyph-name="Ccaron" unicode="&#x10c;" horiz-adv-x="595" 
d="M212 833h107l51 -62h2l50 62h106l-100 -122h-114zM491 -1.5q-46 -8.5 -103 -8.5q-113 0 -192.5 43.5t-120 119.5t-40.5 174q0 112 48.5 193t132.5 123t187 42q55 0 99 -9t67 -21l-31 -121q-60 25 -128 25q-95 0 -155 -57.5t-60 -165.5q0 -102 57.5 -161t158.5 -59
q33 0 68.5 6.5t58.5 15.5l23 -119q-24 -12 -70 -20.5z" />
    <glyph glyph-name="ccaron" unicode="&#x10d;" horiz-adv-x="451" 
d="M118 702h99l51 -87h2l50 87h100l-100 -152h-103zM370.5 -4q-36.5 -6 -78.5 -6q-78 0 -137 30.5t-90.5 87t-31.5 132.5q0 73 32.5 132t96 93.5t151.5 34.5q65 0 116 -19l-24 -113q-34 15 -85 15q-60 0 -96 -38.5t-35 -98.5q0 -65 38 -101t96 -36q49 0 87 15l18 -112
q-21 -10 -57.5 -16z" />
    <glyph glyph-name="Dcaron" unicode="&#x10e;" horiz-adv-x="696" 
d="M164 833h107l50 -62h2l50 62h106l-100 -122h-114zM272 679q95 0 161 -17.5t115 -54.5q54 -40 84 -103.5t30 -150.5q0 -92 -30 -160.5t-82 -112.5q-105 -87 -311 -87q-97 0 -173 10v662q87 14 206 14zM275 112q106 0 165.5 60t59.5 179q0 102 -56.5 156.5t-155.5 54.5
q-43 0 -69 -6v-441q14 -3 56 -3z" />
    <glyph glyph-name="dcaron" unicode="&#x10f;" horiz-adv-x="606" 
d="M595 584q8 27 8 53q0 33 -20 69l95 16q13 -9 22.5 -30.5t9.5 -44.5q0 -57 -22 -92t-48 -60l-65 41q12 21 20 48zM535 146q0 -80 4 -146h-135l-7 72h-2q-23 -40 -63.5 -61.5t-89.5 -21.5q-58 0 -106 31.5t-75.5 89t-27.5 132.5q0 79 30 137.5t80 89.5t109 31
q45 0 78.5 -14.5t50.5 -40.5h2v265h152v-564zM381 309q-7 32 -31 53.5t-58 21.5q-50 0 -77.5 -39.5t-27.5 -99.5q0 -62 28.5 -98.5t75.5 -36.5q33 0 57 20.5t31 52.5q4 15 4 35v64q0 11 -2 27z" />
    <glyph glyph-name="Dcroat" unicode="&#x110;" horiz-adv-x="704" 
d="M74 403v264q93 15 206 15q95 0 161 -17t115 -54q54 -40 83.5 -105t29.5 -152q0 -94 -29.5 -163t-81.5 -113q-53 -44 -132 -66t-179 -22q-97 0 -173 10v284h-71v119h71zM226 284v-172q14 -2 53 -2q108 0 168.5 59.5t60.5 179.5q0 107 -56 161t-157 54q-41 0 -69 -6v-155
h134v-119h-134z" />
    <glyph glyph-name="dcroat" unicode="&#x111;" horiz-adv-x="596" 
d="M535 146q0 -80 4 -146h-135l-7 72h-2q-23 -40 -63.5 -61.5t-89.5 -21.5q-58 0 -106 31.5t-75.5 89t-27.5 132.5q0 79 30 137.5t80 89.5t109 31q45 0 78.5 -14.5t50.5 -40.5h2v95h-181v83h181v87h152v-87h80v-83h-80v-394zM381 309q-7 32 -31 53.5t-58 21.5
q-50 0 -77.5 -39.5t-27.5 -99.5q0 -62 28.5 -98.5t75.5 -36.5q33 0 57 20.5t31 52.5q4 15 4 35v64q0 11 -2 27z" />
    <glyph glyph-name="Emacron" unicode="&#x112;" horiz-adv-x="534" 
d="M401 734h-259v81h259v-81zM219 285v-160h277v-125h-430v674h416v-125h-263v-140h248v-124h-248z" />
    <glyph glyph-name="emacron" unicode="&#x113;" horiz-adv-x="528" 
d="M392 582h-250v83h250v-83zM220.5 127q38.5 -24 95.5 -24q72 0 135 20l20 -103q-75 -30 -177 -30q-123 0 -192 66.5t-69 182.5q0 65 27.5 125t83 98t136.5 38q75 0 124 -34.5t71.5 -89.5t22.5 -120q0 -32 -5 -60h-315q4 -45 42.5 -69zM337.5 368q-19.5 31 -66.5 31
q-43 0 -66.5 -30.5t-27.5 -68.5h180q0 37 -19.5 68z" />
    <glyph glyph-name="Ebreve" unicode="&#x114;" horiz-adv-x="534" 
d="M276 791q52 0 63 46h77q-1 -57 -36 -92t-104 -35q-70 0 -104.5 34.5t-35.5 92.5h81q6 -46 59 -46zM219 285v-160h277v-125h-430v674h416v-125h-263v-140h248v-124h-248z" />
    <glyph glyph-name="ebreve" unicode="&#x115;" horiz-adv-x="528" 
d="M227 647.5q15 -16.5 40 -16.5q29 0 44 17.5t17 43.5h79q-1 -65 -37 -103.5t-103 -38.5t-102 39.5t-36 102.5h79q4 -28 19 -44.5zM220.5 127q38.5 -24 95.5 -24q72 0 135 20l20 -103q-75 -30 -177 -30q-123 0 -192 66.5t-69 182.5q0 65 27.5 125t83 98t136.5 38
q75 0 124 -34.5t71.5 -89.5t22.5 -120q0 -32 -5 -60h-315q4 -45 42.5 -69zM337.5 368q-19.5 31 -66.5 31q-43 0 -66.5 -30.5t-27.5 -68.5h180q0 37 -19.5 68z" />
    <glyph glyph-name="Edotaccent" unicode="&#x116;" horiz-adv-x="534" 
d="M222.5 733.5q-20.5 20.5 -20.5 47.5q0 29 20.5 49t49.5 20q28 0 47.5 -20t19.5 -49q0 -27 -19.5 -47.5t-47.5 -20.5q-29 0 -49.5 20.5zM219 285v-160h277v-125h-430v674h416v-125h-263v-140h248v-124h-248z" />
    <glyph glyph-name="edotaccent" unicode="&#x117;" horiz-adv-x="528" 
d="M220.5 577.5q-20.5 20.5 -20.5 49.5q0 31 20.5 51t50.5 20q29 0 48.5 -20t19.5 -51q0 -29 -19.5 -49.5t-48.5 -20.5q-30 0 -50.5 20.5zM220.5 127q38.5 -24 95.5 -24q72 0 135 20l20 -103q-75 -30 -177 -30q-123 0 -192 66.5t-69 182.5q0 65 27.5 125t83 98t136.5 38
q75 0 124 -34.5t71.5 -89.5t22.5 -120q0 -32 -5 -60h-315q4 -45 42.5 -69zM337.5 368q-19.5 31 -66.5 31q-43 0 -66.5 -30.5t-27.5 -68.5h180q0 37 -19.5 68z" />
    <glyph glyph-name="Eogonek" unicode="&#x118;" horiz-adv-x="534" 
d="M396 -219q-49 0 -76.5 24.5t-27.5 68.5q0 39 20.5 71t49.5 55h-296v674h416v-125h-263v-140h248v-124h-248v-160h277v-125h-25q-28 -19 -48.5 -44t-20.5 -48q0 -15 10.5 -23.5t27.5 -8.5q23 0 42 8l21 -72q-43 -31 -107 -31z" />
    <glyph glyph-name="eogonek" unicode="&#x119;" horiz-adv-x="528" 
d="M337 -219q-48 0 -75 23t-27 63q0 36 20 67.5t47 54.5v1h-13q-120 0 -188 67t-68 182q0 65 27.5 125t83 98t136.5 38q75 0 124 -34.5t71.5 -89.5t22.5 -120q0 -32 -5 -60h-315q4 -45 42.5 -69t95.5 -24q72 0 135 20l20 -103q-7 -3 -43 -15q-30 -14 -58 -43t-28 -53
q0 -16 10 -24.5t24 -8.5q24 0 45 10l23 -71q-45 -34 -107 -34zM337.5 368q-19.5 31 -66.5 31q-43 0 -66.5 -30.5t-27.5 -68.5h180q0 37 -19.5 68z" />
    <glyph glyph-name="Ecaron" unicode="&#x11a;" horiz-adv-x="534" 
d="M113 833h107l50 -63h2l50 63h106l-100 -123h-114zM219 285v-160h277v-125h-430v674h416v-125h-263v-140h248v-124h-248z" />
    <glyph glyph-name="ecaron" unicode="&#x11b;" horiz-adv-x="528" 
d="M117 702h99l50 -87h2l51 87h99l-99 -152h-103zM220.5 127q38.5 -24 95.5 -24q72 0 135 20l20 -103q-75 -30 -177 -30q-123 0 -192 66.5t-69 182.5q0 65 27.5 125t83 98t136.5 38q75 0 124 -34.5t71.5 -89.5t22.5 -120q0 -32 -5 -60h-315q4 -45 42.5 -69zM337.5 368
q-19.5 31 -66.5 31q-43 0 -66.5 -30.5t-27.5 -68.5h180q0 37 -19.5 68z" />
    <glyph glyph-name="Gcircumflex" unicode="&#x11c;" horiz-adv-x="682" 
d="M532 714h-107l-50 62h-2l-50 -62h-106l100 122h114zM524.5 4.5q-60.5 -11.5 -120.5 -11.5q-180 0 -274 91q-46 43 -70.5 105.5t-24.5 135.5q0 111 49 191t136.5 122.5t199.5 42.5q60 0 109.5 -9.5t77.5 -23.5l-32 -122q-67 29 -157 29q-99 0 -161 -56t-62 -162
q0 -103 58.5 -162t153.5 -59q55 0 75 10v141h-104v119h251v-355q-44 -15 -104.5 -26.5z" />
    <glyph glyph-name="gcircumflex" unicode="&#x11d;" horiz-adv-x="585" 
d="M444 551h-99l-50 87h-2l-50 -87h-100l100 152h102zM524 344v-273q0 -75 -17.5 -130t-56.5 -90q-70 -60 -199 -60q-49 0 -96.5 10t-79.5 28l30 115q26 -15 64 -26t78 -11q57 0 92 32t35 97v32h-2q-22 -31 -56 -47.5t-76 -16.5q-60 0 -107 30.5t-73.5 84.5t-26.5 124
q0 76 30 134.5t81 90.5t111 32q91 0 134 -69h2l5 58h132q-4 -62 -4 -145zM369 318q-8 31 -29.5 49t-52.5 18q-43 0 -71.5 -37t-28.5 -102q0 -57 26.5 -93.5t73.5 -36.5q29 0 50.5 17.5t29.5 44.5q5 14 5 40v72q0 16 -3 28z" />
    <glyph glyph-name="Gbreve" unicode="&#x11e;" horiz-adv-x="682" 
d="M337 808.5q14 -13.5 42 -13.5q53 0 63 46h78q-2 -58 -37 -92t-103 -34q-71 0 -105 34t-35 92h80q3 -19 17 -32.5zM524.5 4.5q-60.5 -11.5 -120.5 -11.5q-180 0 -274 91q-46 43 -70.5 105.5t-24.5 135.5q0 111 49 191t136.5 122.5t199.5 42.5q60 0 109.5 -9.5t77.5 -23.5
l-32 -122q-67 29 -157 29q-99 0 -161 -56t-62 -162q0 -103 58.5 -162t153.5 -59q55 0 75 10v141h-104v119h251v-355q-44 -15 -104.5 -26.5z" />
    <glyph glyph-name="gbreve" unicode="&#x11f;" horiz-adv-x="585" 
d="M251 647.5q15 -16.5 40 -16.5q29 0 44 17.5t17 43.5h79q-1 -65 -37 -103.5t-103 -38.5t-102 39.5t-36 102.5h79q4 -28 19 -44.5zM524 344v-273q0 -75 -17.5 -130t-56.5 -90q-70 -60 -199 -60q-49 0 -96.5 10t-79.5 28l30 115q26 -15 64 -26t78 -11q57 0 92 32t35 97v32
h-2q-22 -31 -56 -47.5t-76 -16.5q-60 0 -107 30.5t-73.5 84.5t-26.5 124q0 76 30 134.5t81 90.5t111 32q91 0 134 -69h2l5 58h132q-4 -62 -4 -145zM369 318q-8 31 -29.5 49t-52.5 18q-43 0 -71.5 -37t-28.5 -102q0 -57 26.5 -93.5t73.5 -36.5q29 0 50.5 17.5t29.5 44.5
q5 14 5 40v72q0 16 -3 28z" />
    <glyph glyph-name="Gdotaccent" unicode="&#x120;" horiz-adv-x="682" 
d="M326 732.5q-20 20.5 -20 48.5q0 29 20 49t50 20q28 0 47.5 -20t19.5 -49q0 -28 -19.5 -48.5t-47.5 -20.5q-30 0 -50 20.5zM524.5 4.5q-60.5 -11.5 -120.5 -11.5q-180 0 -274 91q-46 43 -70.5 105.5t-24.5 135.5q0 111 49 191t136.5 122.5t199.5 42.5q60 0 109.5 -9.5
t77.5 -23.5l-32 -122q-67 29 -157 29q-99 0 -161 -56t-62 -162q0 -103 58.5 -162t153.5 -59q55 0 75 10v141h-104v119h251v-355q-44 -15 -104.5 -26.5z" />
    <glyph glyph-name="gdotaccent" unicode="&#x121;" horiz-adv-x="585" 
d="M240.5 578.5q-20.5 20.5 -20.5 49.5q0 31 20.5 51t50.5 20q29 0 48.5 -20t19.5 -51q0 -29 -19.5 -49.5t-48.5 -20.5q-30 0 -50.5 20.5zM524 344v-273q0 -75 -17.5 -130t-56.5 -90q-70 -60 -199 -60q-49 0 -96.5 10t-79.5 28l30 115q26 -15 64 -26t78 -11q57 0 92 32
t35 97v32h-2q-22 -31 -56 -47.5t-76 -16.5q-60 0 -107 30.5t-73.5 84.5t-26.5 124q0 76 30 134.5t81 90.5t111 32q91 0 134 -69h2l5 58h132q-4 -62 -4 -145zM369 318q-8 31 -29.5 49t-52.5 18q-43 0 -71.5 -37t-28.5 -102q0 -57 26.5 -93.5t73.5 -36.5q29 0 50.5 17.5
t29.5 44.5q5 14 5 40v72q0 16 -3 28z" />
    <glyph glyph-name="uni0122" unicode="&#x122;" horiz-adv-x="682" 
d="M524.5 4.5q-60.5 -11.5 -120.5 -11.5q-180 0 -274 91q-46 43 -70.5 105.5t-24.5 135.5q0 111 49 191t136.5 122.5t199.5 42.5q60 0 109.5 -9.5t77.5 -23.5l-32 -122q-67 29 -157 29q-99 0 -161 -56t-62 -162q0 -103 58.5 -162t153.5 -59q55 0 75 10v141h-104v119h251
v-355q-44 -15 -104.5 -26.5zM311 -155.5q19 15.5 19 39.5q0 27 -29 60l106 17q17 -12 28 -33t11 -46q0 -59 -44.5 -90t-114.5 -33l-22 64q27 6 46 21.5z" />
    <glyph glyph-name="uni0123" unicode="&#x123;" horiz-adv-x="585" 
d="M336 650q-20 -15 -20 -40t30 -55l-100 -16q-16 11 -27.5 30.5t-11.5 41.5q0 55 44 83t115 30l22 -54q-32 -5 -52 -20zM524 344v-273q0 -75 -17.5 -130t-56.5 -90q-70 -60 -199 -60q-49 0 -96.5 10t-79.5 28l30 115q26 -15 64 -26t78 -11q57 0 92 32t35 97v32h-2
q-22 -31 -56 -47.5t-76 -16.5q-60 0 -107 30.5t-73.5 84.5t-26.5 124q0 76 30 134.5t81 90.5t111 32q91 0 134 -69h2l5 58h132q-4 -62 -4 -145zM369 318q-8 31 -29.5 49t-52.5 18q-43 0 -71.5 -37t-28.5 -102q0 -57 26.5 -93.5t73.5 -36.5q29 0 50.5 17.5t29.5 44.5
q5 14 5 40v72q0 16 -3 28z" />
    <glyph glyph-name="Hcircumflex" unicode="&#x124;" horiz-adv-x="689" 
d="M503 710h-107l-51 62h-2l-50 -62h-106l100 123h114zM219 415h251v259h152v-674h-152v282h-251v-282h-153v674h153v-259z" />
    <glyph glyph-name="hcircumflex" unicode="&#x125;" horiz-adv-x="586" 
d="M300 734h-107l-50 62h-2l-51 -62h-106l100 123h115zM213 710v-279h2q23 30 60 50q35 19 79 19q77 0 124 -54t47 -160v-286h-152v269q0 51 -19 79.5t-60 28.5q-28 0 -47.5 -15t-28.5 -38q-5 -12 -5 -34v-290h-152v710h152z" />
    <glyph glyph-name="Hbar" unicode="&#x126;" horiz-adv-x="701" 
d="M628 0h-152v256h-251v-256h-153v471h-64v90h64v113h153v-113h251v113h152v-113h65v-90h-65v-471zM225 471v-82h251v82h-251z" />
    <glyph glyph-name="hbar" unicode="&#x127;" horiz-adv-x="586" 
d="M373 269q0 51 -19 79.5t-60 28.5q-28 0 -47.5 -15t-28.5 -38q-5 -12 -5 -34v-290h-152v540h-79v83h79v87h152v-87h183v-83h-183v-109h2q25 32 60 50q36 19 79 19q77 0 124 -54t47 -160v-286h-152v269z" />
    <glyph glyph-name="Itilde" unicode="&#x128;" horiz-adv-x="285" 
d="M22 809q21 33 58 33q30 0 63 -20q12 -7 24 -13t21 -6q12 0 18 9.5t9 33.5h68q1 -66 -19 -95.5t-60 -29.5q-31 0 -65 19q-6 3 -19 10.5t-23 7.5t-16.5 -11t-7.5 -32h-70q-2 61 19 94zM219 0h-153v674h153v-674z" />
    <glyph glyph-name="itilde" unicode="&#x129;" horiz-adv-x="274" 
d="M15 654.5q22 34.5 62 34.5q17 0 31 -5t34 -15q3 -2 12.5 -8t16.5 -9t13 -3q12 0 18 9.5t8 35.5h70q4 -129 -82 -129q-19 0 -33 5.5t-36 16.5q-4 2 -12.5 7t-14 7t-11.5 2q-22 0 -24 -45h-72q-2 62 20 96.5zM61 489h152v-489h-152v489z" />
    <glyph glyph-name="Imacron" unicode="&#x12a;" horiz-adv-x="285" 
d="M272 734h-259v81h259v-81zM219 0h-153v674h153v-674z" />
    <glyph glyph-name="imacron" unicode="&#x12b;" horiz-adv-x="274" 
d="M262 582h-250v83h250v-83zM61 489h152v-489h-152v489z" />
    <glyph glyph-name="Ibreve" unicode="&#x12c;" horiz-adv-x="285" 
d="M142 793q52 0 63 46h77q-1 -57 -36 -91.5t-104 -34.5q-70 0 -104 34t-36 92h81q6 -46 59 -46zM219 0h-153v674h153v-674z" />
    <glyph glyph-name="ibreve" unicode="&#x12d;" horiz-adv-x="274" 
d="M97 647.5q15 -16.5 40 -16.5q29 0 44 17.5t17 43.5h79q-1 -65 -37 -103.5t-103 -38.5t-102 39.5t-36 102.5h79q4 -28 19 -44.5zM61 489h152v-489h-152v489z" />
    <glyph glyph-name="Iogonek" unicode="&#x12e;" horiz-adv-x="285" 
d="M150 0q-22 -40 -22 -69q0 -25 15.5 -40.5t39.5 -15.5q27 0 43 7l22 -70q-20 -16 -48 -24t-54 -8q-53 0 -83 27t-30 79q0 30 9.5 57.5t23.5 56.5v674h153v-674h-69z" />
    <glyph glyph-name="iogonek" unicode="&#x12f;" horiz-adv-x="274" 
d="M76 573.5q-23 22.5 -22 56.5q-1 34 22 56t61 22t60.5 -22t22.5 -56q1 -34 -22 -56.5t-61 -22.5t-61 22.5zM145 0q-22 -40 -22 -69q0 -25 15.5 -40.5t38.5 -15.5q27 0 44 7l21 -70q-19 -16 -47 -24t-55 -8q-53 0 -82.5 27t-29.5 79q0 30 9.5 57.5t23.5 56.5v489h152v-489
h-68z" />
    <glyph glyph-name="Idotaccent" unicode="&#x130;" horiz-adv-x="285" 
d="M94.5 733.5q-20.5 20.5 -20.5 47.5q0 29 20.5 49t49.5 20q28 0 47.5 -20t19.5 -49q0 -27 -19.5 -47.5t-47.5 -20.5q-29 0 -49.5 20.5zM219 0h-153v674h153v-674z" />
    <glyph glyph-name="dotlessi" unicode="&#x131;" horiz-adv-x="274" 
d="M61 489h152v-489h-152v489z" />
    <glyph glyph-name="IJ" unicode="&#x132;" horiz-adv-x="696" 
d="M219 0h-153v674h153v-674zM635 674v-426q0 -138 -61.5 -198.5t-178.5 -60.5q-27 0 -58 4.5t-53 11.5l17 123q36 -12 78 -12q52 0 78 29.5t26 104.5v424h152z" />
    <glyph glyph-name="ij" unicode="&#x133;" horiz-adv-x="565" 
d="M195 680.5q22 -21.5 23 -55.5q0 -32 -22.5 -54t-59.5 -22q-35 0 -57.5 22t-21.5 54q-1 33 21.5 55t58.5 22t58 -21.5zM488.5 680.5q21.5 -21.5 22.5 -55.5q0 -32 -22.5 -54t-59.5 -22q-35 0 -57 22t-22 54q0 33 22.5 55t58.5 22t57.5 -21.5zM61 489h152v-489h-152v489z
M324 -58q17 18 24 53t7 106v388h152v-424q0 -79 -17 -130.5t-52 -83.5q-32 -30 -81.5 -45t-107.5 -15l-14 119q63 5 89 32z" />
    <glyph glyph-name="Jcircumflex" unicode="&#x134;" horiz-adv-x="411" 
d="M430 710h-107l-50 62h-2l-50 -62h-106l100 123h114zM350 674v-426q0 -138 -61.5 -198.5t-178.5 -60.5q-27 0 -58 4.5t-53 11.5l17 123q36 -12 78 -12q52 0 78 29.5t26 104.5v424h152z" />
    <glyph glyph-name="jcircumflex" unicode="&#x135;" horiz-adv-x="291" 
d="M299 548h-99l-50 87h-2l-50 -87h-100l100 152h102zM50 -58q17 17 23.5 52t6.5 107v388h153v-424q0 -79 -17 -130.5t-52 -83.5q-32 -30 -81.5 -45t-107.5 -15l-15 119q64 5 90 32z" />
    <glyph glyph-name="uni0136" unicode="&#x136;" horiz-adv-x="614" 
d="M217 674v-298h3q10 18 32 52l14 22l153 224h187l-223 -287l235 -387h-178l-165 291l-58 -71v-220h-151v674h151zM264.5 -155q19.5 16 19.5 39q0 16 -8.5 30.5t-21.5 29.5l106 18q16 -12 27.5 -33t11.5 -46q0 -59 -44.5 -90.5t-114.5 -33.5l-22 64q27 6 46.5 22z" />
    <glyph glyph-name="uni0137" unicode="&#x137;" horiz-adv-x="542" 
d="M215 283q15 28 35 59l99 147h183l-175 -198l200 -291h-187l-118 201l-39 -48v-153h-152v710h152v-427h2zM226.5 -156q19.5 16 19.5 40q0 25 -30 60l106 17q16 -12 27.5 -33t11.5 -46q0 -59 -44.5 -90.5t-114.5 -33.5l-22 65q27 5 46.5 21z" />
    <glyph glyph-name="kgreenlandic" unicode="&#x138;" horiz-adv-x="542" 
d="M215 283q15 28 35 59l99 147h183l-175 -198l200 -291h-187l-118 201l-39 -48v-153h-152v489h152v-206h2z" />
    <glyph glyph-name="Lacute" unicode="&#x139;" horiz-adv-x="511" 
d="M202 710h-121l84 123h160zM219 674v-546h268v-128h-421v674h153z" />
    <glyph glyph-name="lacute" unicode="&#x13a;" horiz-adv-x="275" 
d="M182 740h-122l85 123h160zM213 710v-710h-152v710h152z" />
    <glyph glyph-name="uni013B" unicode="&#x13b;" horiz-adv-x="511" 
d="M219 674v-546h268v-128h-421v674h153zM216 -155.5q19 15.5 19 39.5q0 27 -29 60l105 17q17 -12 28 -33t11 -46q0 -59 -44 -90t-114 -33l-23 64q28 6 47 21.5z" />
    <glyph glyph-name="uni013C" unicode="&#x13c;" horiz-adv-x="275" 
d="M213 710v-710h-152v710h152zM81.5 -156q19.5 16 19.5 40q0 27 -29 60l105 17q16 -12 27.5 -33t11.5 -46q0 -59 -44 -90.5t-114 -33.5l-23 65q27 5 46.5 21z" />
    <glyph glyph-name="Lcaron" unicode="&#x13d;" horiz-adv-x="511" 
d="M317.5 571q19.5 16 19.5 39q0 28 -30 60l106 17q16 -11 27.5 -32.5t11.5 -46.5q0 -59 -44 -90t-114 -33l-23 64q27 6 46.5 22zM219 674v-546h268v-128h-421v674h153z" />
    <glyph glyph-name="lcaron" unicode="&#x13e;" horiz-adv-x="285" 
d="M278 637q0 35 -21 69l96 16q13 -10 22.5 -32t9.5 -48q0 -54 -19 -86.5t-45 -60.5l-71 41q28 56 28 101zM213 710v-710h-152v710h152z" />
    <glyph glyph-name="Ldot" unicode="&#x13f;" horiz-adv-x="511" 
d="M219 674v-546h268v-128h-421v674h153zM340.5 330.5q-20.5 20.5 -20.5 47.5q0 29 20.5 49t50.5 20q28 0 47 -20t19 -49q0 -27 -19.5 -47.5t-47.5 -20.5q-29 0 -49.5 20.5z" />
    <glyph glyph-name="ldot" unicode="&#x140;" horiz-adv-x="354" 
d="M213 710v-710h-152v710h152zM270 334q-19 20 -19 48q0 29 18.5 48.5t46.5 19.5q26 0 44 -19.5t18 -48.5q0 -28 -17.5 -48t-44.5 -20t-46 20z" />
    <glyph glyph-name="Lslash" unicode="&#x141;" horiz-adv-x="517" 
d="M73 235l-76 -51v105l76 52v333h152v-232l126 85v-106l-126 -85v-208h268v-128h-420v235z" />
    <glyph glyph-name="lslash" unicode="&#x142;" horiz-adv-x="287" 
d="M67 229l-65 -51v108l65 52v372h153v-259l71 57v-109l-71 -57v-342h-153v229z" />
    <glyph glyph-name="Nacute" unicode="&#x143;" horiz-adv-x="690" 
d="M390 710h-122l84 123h160zM66 674h178l140 -247q63 -112 110 -231h3q-13 116 -13 281v197h140v-674h-160l-144 260q-71 128 -117 238l-3 -1q6 -133 6 -294v-203h-140v674z" />
    <glyph glyph-name="nacute" unicode="&#x144;" horiz-adv-x="586" 
d="M323 550h-105l86 152h141zM57 489h132l7 -67h3q19 30 58 54t93 24q79 0 127 -53t48 -157v-290h-152v271q0 50 -18.5 78t-58.5 28q-29 0 -48.5 -16.5t-28.5 -40.5q-6 -13 -6 -38v-282h-152v333q0 70 -4 156z" />
    <glyph glyph-name="uni0145" unicode="&#x145;" horiz-adv-x="690" 
d="M66 674h178l140 -247q63 -112 110 -231h3q-13 116 -13 281v197h140v-674h-160l-144 260q-71 128 -117 238l-3 -1q6 -133 6 -294v-203h-140v674zM301 -153.5q19 15.5 19 39.5q0 25 -30 60l106 17q17 -12 28 -33t11 -46q0 -59 -44.5 -90t-114.5 -33l-22 64q28 6 47 21.5z
" />
    <glyph glyph-name="uni0146" unicode="&#x146;" horiz-adv-x="586" 
d="M57 489h132l7 -67h3q19 30 58 54t93 24q79 0 127 -53t48 -157v-290h-152v271q0 50 -18.5 78t-58.5 28q-29 0 -48.5 -16.5t-28.5 -40.5q-6 -13 -6 -38v-282h-152v333q0 70 -4 156zM248 -155.5q19 15.5 19 39.5q0 27 -29 60l106 18q16 -12 27.5 -33.5t11.5 -46.5
q0 -59 -44.5 -90t-114.5 -34l-23 65q28 6 47 21.5z" />
    <glyph glyph-name="Ncaron" unicode="&#x147;" horiz-adv-x="690" 
d="M191 831h107l50 -62h2l50 62h106l-100 -123h-114zM66 674h178l140 -247q63 -112 110 -231h3q-13 116 -13 281v197h140v-674h-160l-144 260q-71 128 -117 238l-3 -1q6 -133 6 -294v-203h-140v674z" />
    <glyph glyph-name="ncaron" unicode="&#x148;" horiz-adv-x="586" 
d="M142 702h99l50 -87h2l51 87h99l-99 -152h-103zM57 489h132l7 -67h3q19 30 58 54t93 24q79 0 127 -53t48 -157v-290h-152v271q0 50 -18.5 78t-58.5 28q-29 0 -48.5 -16.5t-28.5 -40.5q-6 -13 -6 -38v-282h-152v333q0 70 -4 156z" />
    <glyph glyph-name="napostrophe" unicode="&#x149;" horiz-adv-x="586" 
d="M31 610.5q8 20.5 8 41.5q0 15 -6 29.5t-14 25.5l97 25q12 -8 22 -28.5t10 -47.5q0 -74 -73 -132l-67 41q15 25 23 45.5zM57 489h132l7 -67h3q19 30 58 54t93 24q79 0 127 -53t48 -157v-290h-152v271q0 50 -18.5 78t-58.5 28q-29 0 -48.5 -16.5t-28.5 -40.5q-6 -13 -6 -38
v-282h-152v333q0 70 -4 156z" />
    <glyph glyph-name="Eng" unicode="&#x14a;" horiz-adv-x="690" 
d="M66 674h178l140 -247q63 -112 110 -231h3q-13 116 -13 281v197h140v-626q0 -124 -60 -187.5t-168 -76.5l-33 116q50 12 77.5 32.5t34.5 52.5l-155 275q-71 128 -117 238l-3 -1q6 -133 6 -294v-203h-140v674z" />
    <glyph glyph-name="eng" unicode="&#x14b;" horiz-adv-x="586" 
d="M57 489h132l7 -67h3q19 30 58 54t93 24q79 0 127 -53t48 -157v-231q0 -231 -207 -254l-29 118q44 8 64 34t20 78v236q0 50 -18.5 78t-58.5 28q-29 0 -48.5 -16.5t-28.5 -40.5q-6 -13 -6 -38v-282h-152v333q0 70 -4 156z" />
    <glyph glyph-name="Omacron" unicode="&#x14c;" horiz-adv-x="717" 
d="M489 736h-259v81h259v-81zM535.5 639.5q72.5 -45.5 110 -123t37.5 -172.5q0 -109 -41.5 -189t-116.5 -123t-173 -43q-97 0 -169 45t-110 123t-38 175q0 101 40.5 181t115 126t172.5 46q100 0 172.5 -45.5zM239.5 500q-43.5 -64 -43.5 -165q0 -100 44.5 -162.5
t119.5 -62.5t118.5 64t43.5 165q0 62 -19 113t-56 81.5t-88 30.5q-76 0 -119.5 -64z" />
    <glyph glyph-name="omacron" unicode="&#x14d;" horiz-adv-x="577" 
d="M414 582h-251v83h251v-83zM425 468.5q57 -31.5 88 -88.5t31 -130q0 -86 -36 -144.5t-95 -87.5t-127 -29q-72 0 -129.5 30.5t-90.5 87.5t-33 134q0 78 32.5 136.5t91.5 90.5t137 32q74 0 131 -31.5zM214.5 349q-24.5 -43 -24.5 -104q0 -65 26.5 -106t73.5 -41
q44 0 70.5 40.5t26.5 106.5q0 61 -24.5 104t-72.5 43q-51 0 -75.5 -43z" />
    <glyph glyph-name="Obreve" unicode="&#x14e;" horiz-adv-x="717" 
d="M315.5 810q13.5 -13 42.5 -13q53 0 63 46h78q-2 -57 -37 -91.5t-104 -34.5q-70 0 -104 34t-36 92h81q3 -20 16.5 -33zM535.5 639.5q72.5 -45.5 110 -123t37.5 -172.5q0 -109 -41.5 -189t-116.5 -123t-173 -43q-97 0 -169 45t-110 123t-38 175q0 101 40.5 181t115 126
t172.5 46q100 0 172.5 -45.5zM239.5 500q-43.5 -64 -43.5 -165q0 -100 44.5 -162.5t119.5 -62.5t118.5 64t43.5 165q0 62 -19 113t-56 81.5t-88 30.5q-76 0 -119.5 -64z" />
    <glyph glyph-name="obreve" unicode="&#x14f;" horiz-adv-x="577" 
d="M247 647.5q15 -16.5 40 -16.5q29 0 44 17.5t17 43.5h79q-1 -65 -37 -103.5t-103 -38.5t-102 39.5t-36 102.5h79q4 -28 19 -44.5zM425 468.5q57 -31.5 88 -88.5t31 -130q0 -86 -36 -144.5t-95 -87.5t-127 -29q-72 0 -129.5 30.5t-90.5 87.5t-33 134q0 78 32.5 136.5
t91.5 90.5t137 32q74 0 131 -31.5zM214.5 349q-24.5 -43 -24.5 -104q0 -65 26.5 -106t73.5 -41q44 0 70.5 40.5t26.5 106.5q0 61 -24.5 104t-72.5 43q-51 0 -75.5 -43z" />
    <glyph glyph-name="Ohungarumlaut" unicode="&#x150;" horiz-adv-x="717" 
d="M322 719h-105l65 116h141zM503 719h-105l66 116h140zM535.5 639.5q72.5 -45.5 110 -123t37.5 -172.5q0 -109 -41.5 -189t-116.5 -123t-173 -43q-97 0 -169 45t-110 123t-38 175q0 101 40.5 181t115 126t172.5 46q100 0 172.5 -45.5zM239.5 500q-43.5 -64 -43.5 -165
q0 -100 44.5 -162.5t119.5 -62.5t118.5 64t43.5 165q0 62 -19 113t-56 81.5t-88 30.5q-76 0 -119.5 -64z" />
    <glyph glyph-name="ohungarumlaut" unicode="&#x151;" horiz-adv-x="577" 
d="M222 552h-86l64 149h120zM395 552h-85l63 149h120zM425 468.5q57 -31.5 88 -88.5t31 -130q0 -86 -36 -144.5t-95 -87.5t-127 -29q-72 0 -129.5 30.5t-90.5 87.5t-33 134q0 78 32.5 136.5t91.5 90.5t137 32q74 0 131 -31.5zM214.5 349q-24.5 -43 -24.5 -104
q0 -65 26.5 -106t73.5 -41q44 0 70.5 40.5t26.5 106.5q0 61 -24.5 104t-72.5 43q-51 0 -75.5 -43z" />
    <glyph glyph-name="OE" unicode="&#x152;" horiz-adv-x="936" 
d="M517 0q-16 0 -62 -6q-58 -5 -82 -5q-111 0 -187 46.5t-113.5 124t-37.5 171.5q0 107 42.5 187t119.5 123.5t178 43.5q28 0 91 -5q50 -6 63 -6h354v-125h-263v-140h248v-124h-248v-160h277v-125h-380zM389 564q-54 0 -98 -26.5t-69.5 -78.5t-25.5 -125q0 -100 54 -162
t149 -62q42 0 69 12v428q-30 14 -79 14z" />
    <glyph glyph-name="oe" unicode="&#x153;" horiz-adv-x="868" 
d="M566.5 128.5q37.5 -26.5 92.5 -26.5q41 0 71 6.5t65 19.5l21 -102q-36 -20 -85 -28.5t-93 -8.5q-121 0 -180 86h-3q-30 -43 -78 -64.5t-105 -21.5q-67 0 -121 31t-86 88.5t-32 135.5q0 76 32 134t88.5 90t128.5 32q54 0 100.5 -22.5t71.5 -64.5h2q29 43 73 65t97 22
q74 0 121.5 -34.5t69.5 -90t22 -119.5q0 -39 -4 -57h-309q3 -44 40.5 -70.5zM680.5 368.5q-18.5 30.5 -67.5 30.5q-42 0 -65 -31.5t-24 -66.5h174q1 37 -17.5 67.5zM213.5 348.5q-23.5 -43.5 -23.5 -104.5q0 -64 26 -105t72 -41t71 39.5t25 107.5q0 62 -24 104.5t-70 42.5
q-53 0 -76.5 -43.5z" />
    <glyph glyph-name="Racute" unicode="&#x154;" horiz-adv-x="593" 
d="M333 711h-122l85 123h160zM269 679q77 0 130 -12.5t88 -40.5q62 -50 62 -141q0 -60 -35.5 -104t-83.5 -62v-3q34 -14 55 -45.5t35 -80.5q11 -37 17 -64q28 -105 38 -126h-156q-16 27 -47 157q-13 62 -37 84.5t-72 23.5h-46v-265h-151v665q86 14 203 14zM277 375
q57 0 89 26t32 71q0 46 -29.5 69.5t-82.5 24.5q-41 0 -69 -5v-186h60z" />
    <glyph glyph-name="racute" unicode="&#x155;" horiz-adv-x="380" 
d="M230 550h-104l86 152h140zM57 489h131l5 -90h4q17 50 55 75.5t77 25.5q21 0 32 -2v-143q-22 4 -41 4q-42 0 -69 -20.5t-35 -56.5q-3 -15 -3 -34v-248h-152v328q0 77 -4 161z" />
    <glyph glyph-name="uni0156" unicode="&#x156;" horiz-adv-x="593" 
d="M269 679q77 0 130 -12.5t88 -40.5q62 -50 62 -141q0 -60 -35.5 -104t-83.5 -62v-3q34 -14 55 -45.5t35 -80.5q11 -37 17 -64q28 -105 38 -126h-156q-16 27 -47 157q-13 62 -37 84.5t-72 23.5h-46v-265h-151v665q86 14 203 14zM277 375q57 0 89 26t32 71q0 46 -29.5 69.5
t-82.5 24.5q-41 0 -69 -5v-186h60zM251 -153q19 16 19 39q0 27 -29 60l106 17q16 -11 27.5 -32.5t11.5 -46.5q0 -59 -44.5 -90t-114.5 -33l-22 64q27 6 46 22z" />
    <glyph glyph-name="uni0157" unicode="&#x157;" horiz-adv-x="380" 
d="M57 489h131l5 -90h4q17 50 55 75.5t77 25.5q21 0 32 -2v-143q-22 4 -41 4q-42 0 -69 -20.5t-35 -56.5q-3 -15 -3 -34v-248h-152v328q0 77 -4 161zM89.5 -156q19.5 16 19.5 40q0 27 -29 60l105 17q16 -12 27.5 -33t11.5 -46q0 -59 -44 -90.5t-114 -33.5l-23 65
q27 5 46.5 21z" />
    <glyph glyph-name="Rcaron" unicode="&#x158;" horiz-adv-x="593" 
d="M134 833h107l50 -62h2l50 62h106l-100 -122h-114zM269 679q77 0 130 -12.5t88 -40.5q62 -50 62 -141q0 -60 -35.5 -104t-83.5 -62v-3q34 -14 55 -45.5t35 -80.5q11 -37 17 -64q28 -105 38 -126h-156q-16 27 -47 157q-13 62 -37 84.5t-72 23.5h-46v-265h-151v665
q86 14 203 14zM277 375q57 0 89 26t32 71q0 46 -29.5 69.5t-82.5 24.5q-41 0 -69 -5v-186h60z" />
    <glyph glyph-name="rcaron" unicode="&#x159;" horiz-adv-x="380" 
d="M50 702h99l50 -87h2l51 87h99l-99 -152h-103zM57 489h131l5 -90h4q17 50 55 75.5t77 25.5q21 0 32 -2v-143q-22 4 -41 4q-42 0 -69 -20.5t-35 -56.5q-3 -15 -3 -34v-248h-152v328q0 77 -4 161z" />
    <glyph glyph-name="Sacute" unicode="&#x15a;" horiz-adv-x="540" 
d="M330 711h-122l85 123h160zM150.5 127q44.5 -12 89.5 -12q52 0 79.5 19.5t27.5 53.5q0 31 -25.5 52t-87.5 43q-185 64 -185 199q0 58 31 104t88.5 72.5t135.5 26.5q96 0 172 -34l-34 -123q-66 32 -141 32q-47 0 -72.5 -18.5t-25.5 -46.5q0 -30 27 -49t98 -46
q90 -33 132.5 -81.5t42.5 -119.5q0 -58 -30 -105.5t-91.5 -75.5t-150.5 -28q-55 0 -107.5 12t-83.5 29l31 126q35 -18 79.5 -30z" />
    <glyph glyph-name="sacute" unicode="&#x15b;" horiz-adv-x="434" 
d="M262 550h-105l86 152h141zM121 107.5q38 -11.5 70 -11.5q65 0 65 41q0 19 -14.5 30.5t-57.5 25.5q-72 24 -105.5 62t-33.5 83q0 46 24.5 83t69.5 58t105 21q41 0 77.5 -8t60.5 -20l-27 -105q-20 11 -48.5 19.5t-57.5 8.5q-28 0 -43 -10.5t-15 -29.5q0 -17 16.5 -28.5
t62.5 -27.5q69 -24 100.5 -60t32.5 -91q0 -71 -55 -114.5t-157 -43.5q-47 0 -88 9t-70 25l27 109q23 -14 61 -25.5z" />
    <glyph glyph-name="Scircumflex" unicode="&#x15c;" horiz-adv-x="540" 
d="M430 711h-107l-50 62h-2l-50 -62h-106l100 123h114zM150.5 127q44.5 -12 89.5 -12q52 0 79.5 19.5t27.5 53.5q0 31 -25.5 52t-87.5 43q-185 64 -185 199q0 58 31 104t88.5 72.5t135.5 26.5q96 0 172 -34l-34 -123q-66 32 -141 32q-47 0 -72.5 -18.5t-25.5 -46.5
q0 -30 27 -49t98 -46q90 -33 132.5 -81.5t42.5 -119.5q0 -58 -30 -105.5t-91.5 -75.5t-150.5 -28q-55 0 -107.5 12t-83.5 29l31 126q35 -18 79.5 -30z" />
    <glyph glyph-name="scircumflex" unicode="&#x15d;" horiz-adv-x="434" 
d="M371 550h-99l-51 87h-2l-50 -87h-99l99 152h103zM121 107.5q38 -11.5 70 -11.5q65 0 65 41q0 19 -14.5 30.5t-57.5 25.5q-72 24 -105.5 62t-33.5 83q0 46 24.5 83t69.5 58t105 21q41 0 77.5 -8t60.5 -20l-27 -105q-20 11 -48.5 19.5t-57.5 8.5q-28 0 -43 -10.5t-15 -29.5
q0 -17 16.5 -28.5t62.5 -27.5q69 -24 100.5 -60t32.5 -91q0 -71 -55 -114.5t-157 -43.5q-47 0 -88 9t-70 25l27 109q23 -14 61 -25.5z" />
    <glyph glyph-name="Scedilla" unicode="&#x15e;" horiz-adv-x="540" 
d="M301 560q-47 0 -72.5 -18.5t-25.5 -46.5q0 -30 27 -49t98 -46q90 -33 132.5 -81.5t42.5 -119.5q0 -75 -49.5 -130t-144.5 -72l-19 -41q31 -7 52 -28t21 -54q0 -48 -35 -70t-84 -22q-52 0 -86 19l20 62q11 -6 26.5 -10t29.5 -4q16 0 26 6t10 18q0 16 -18.5 24.5
t-60.5 13.5l36 79q-55 1 -106.5 12.5t-80.5 28.5l31 126q35 -18 79.5 -30t89.5 -12q52 0 79.5 19.5t27.5 53.5q0 31 -25.5 52t-87.5 43q-185 64 -185 199q0 58 31 104t88.5 72.5t135.5 26.5q96 0 172 -34l-34 -123q-66 32 -141 32z" />
    <glyph glyph-name="scedilla" unicode="&#x15f;" horiz-adv-x="434" 
d="M306.5 386.5q-28.5 8.5 -57.5 8.5q-28 0 -43 -10.5t-15 -29.5q0 -17 16.5 -28.5t62.5 -27.5q69 -24 100.5 -60t32.5 -91q0 -58 -38 -99t-110 -54l-22 -39q30 -3 51 -23t21 -49q0 -46 -34 -67t-87 -21q-48 0 -81 20l20 57q31 -17 55 -17q15 0 25.5 6.5t9.5 19.5
q0 30 -77 36l36 72q-41 2 -77.5 11t-61.5 23l27 109q23 -14 61 -25.5t70 -11.5q65 0 65 41q0 19 -14.5 30.5t-57.5 25.5q-72 24 -105.5 62t-33.5 83q0 46 24.5 83t69.5 58t105 21q41 0 77.5 -8t60.5 -20l-27 -105q-20 11 -48.5 19.5z" />
    <glyph glyph-name="Scaron" unicode="&#x160;" horiz-adv-x="540" 
d="M121 833h107l51 -62h2l50 62h106l-100 -122h-115zM150.5 127q44.5 -12 89.5 -12q52 0 79.5 19.5t27.5 53.5q0 31 -25.5 52t-87.5 43q-185 64 -185 199q0 58 31 104t88.5 72.5t135.5 26.5q96 0 172 -34l-34 -123q-66 32 -141 32q-47 0 -72.5 -18.5t-25.5 -46.5
q0 -30 27 -49t98 -46q90 -33 132.5 -81.5t42.5 -119.5q0 -58 -30 -105.5t-91.5 -75.5t-150.5 -28q-55 0 -107.5 12t-83.5 29l31 126q35 -18 79.5 -30z" />
    <glyph glyph-name="scaron" unicode="&#x161;" horiz-adv-x="434" 
d="M69 702h99l51 -87h2l50 87h100l-100 -152h-103zM121 107.5q38 -11.5 70 -11.5q65 0 65 41q0 19 -14.5 30.5t-57.5 25.5q-72 24 -105.5 62t-33.5 83q0 46 24.5 83t69.5 58t105 21q41 0 77.5 -8t60.5 -20l-27 -105q-20 11 -48.5 19.5t-57.5 8.5q-28 0 -43 -10.5t-15 -29.5
q0 -17 16.5 -28.5t62.5 -27.5q69 -24 100.5 -60t32.5 -91q0 -71 -55 -114.5t-157 -43.5q-47 0 -88 9t-70 25l27 109q23 -14 61 -25.5z" />
    <glyph glyph-name="uni0162" unicode="&#x162;" horiz-adv-x="548" 
d="M294 -44q31 -7 52 -28t21 -54q0 -48 -35.5 -70t-84.5 -22q-51 0 -85 19l19 62q11 -6 27 -10t30 -4q15 0 25 6t10 18q0 16 -18.5 24.5t-59.5 13.5l39 89h-38v546h-181v128h518v-128h-184v-546h-34z" />
    <glyph glyph-name="uni0163" unicode="&#x163;" horiz-adv-x="367" 
d="M231 200q0 -46 13 -66t47 -20q23 0 45 4l1 -115q-31 -12 -91 -13l-19 -34q30 -3 51 -23t21 -49q0 -46 -34 -67t-87 -21q-48 0 -81 20l20 57q31 -17 55 -17q15 0 25.5 6.5t9.5 19.5q0 30 -77 36l41 84q-27 10 -47 30q-42 44 -42 145v200h-65v112h65v106l149 34v-140h109
v-112h-109v-177z" />
    <glyph glyph-name="Tcaron" unicode="&#x164;" horiz-adv-x="548" 
d="M115 833h107l51 -63h2l50 63h106l-100 -123h-115zM15 546v128h518v-128h-184v-546h-153v546h-181z" />
    <glyph glyph-name="tcaron" unicode="&#x165;" horiz-adv-x="371" 
d="M315.5 621q9.5 19 9.5 40q0 27 -19 54l98 16q12 -10 21.5 -29.5t9.5 -39.5q0 -51 -34.5 -83.5t-72.5 -40.5l-37 55q15 9 24.5 28zM231 489h109v-112h-109v-177q0 -46 13 -66t47 -20q23 0 45 4l1 -115q-32 -13 -99 -13q-36 0 -65.5 11.5t-48.5 30.5q-42 44 -42 145v200
h-65v112h65v106l149 34v-140z" />
    <glyph glyph-name="Tbar" unicode="&#x166;" horiz-adv-x="548" 
d="M349 380h114v-90h-114v-290h-153v290h-115v90h115v166h-181v128h518v-128h-184v-166z" />
    <glyph glyph-name="tbar" unicode="&#x167;" horiz-adv-x="367" 
d="M231 307h83v-80h-83v-27q0 -46 13 -66t47 -20q23 0 45 4l1 -115q-32 -13 -99 -13q-36 0 -65.5 11.5t-48.5 30.5q-42 44 -42 145v50h-63v80h63v70h-65v112h65v106l149 34v-140h109v-112h-109v-70z" />
    <glyph glyph-name="Utilde" unicode="&#x168;" horiz-adv-x="682" 
d="M220 809q21 33 58 33q18 0 32.5 -5t31.5 -15q30 -19 44 -19q12 0 18 9.5t9 33.5h68q2 -66 -18 -95.5t-61 -29.5q-31 0 -65 19q-6 3 -19 10.5t-23 7.5t-16.5 -11t-7.5 -32h-70q-2 61 19 94zM218 286q0 -86 31.5 -130.5t90.5 -44.5q124 0 124 175v388h152v-378
q0 -153 -73 -230t-208 -77q-131 0 -200.5 75.5t-69.5 233.5v376h153v-388z" />
    <glyph glyph-name="utilde" unicode="&#x169;" horiz-adv-x="583" 
d="M170 654.5q22 34.5 62 34.5q17 0 31 -5t34 -15q3 -2 12.5 -8t16.5 -9t13 -3q12 0 18 9.5t8 35.5h70q4 -129 -82 -129q-19 0 -33 5.5t-36 16.5q-4 2 -12.5 7t-14 7t-11.5 2q-22 0 -24 -45h-72q-2 62 20 96.5zM526 0h-132l-7 69h-3q-20 -31 -57.5 -55.5t-95.5 -24.5
q-79 0 -125.5 52.5t-46.5 160.5v287h153v-263q0 -114 76 -114q29 0 48 15.5t28 37.5q5 11 5 33v291h153v-332q0 -75 4 -157z" />
    <glyph glyph-name="Umacron" unicode="&#x16a;" horiz-adv-x="682" 
d="M471 734h-259v81h259v-81zM218 286q0 -86 31.5 -130.5t90.5 -44.5q124 0 124 175v388h152v-378q0 -153 -73 -230t-208 -77q-131 0 -200.5 75.5t-69.5 233.5v376h153v-388z" />
    <glyph glyph-name="umacron" unicode="&#x16b;" horiz-adv-x="583" 
d="M418 582h-251v83h251v-83zM526 0h-132l-7 69h-3q-20 -31 -57.5 -55.5t-95.5 -24.5q-79 0 -125.5 52.5t-46.5 160.5v287h153v-263q0 -114 76 -114q29 0 48 15.5t28 37.5q5 11 5 33v291h153v-332q0 -75 4 -157z" />
    <glyph glyph-name="Ubreve" unicode="&#x16c;" horiz-adv-x="682" 
d="M298 803.5q14 -13.5 42 -13.5q53 0 63 46h78q-2 -58 -37 -92t-104 -34q-70 0 -104 34t-36 92h81q3 -19 17 -32.5zM218 286q0 -86 31.5 -130.5t90.5 -44.5q124 0 124 175v388h152v-378q0 -153 -73 -230t-208 -77q-131 0 -200.5 75.5t-69.5 233.5v376h153v-388z" />
    <glyph glyph-name="ubreve" unicode="&#x16d;" horiz-adv-x="583" 
d="M251 647.5q15 -16.5 40 -16.5q29 0 44 17.5t17 43.5h79q-1 -65 -37 -103.5t-103 -38.5t-102 39.5t-36 102.5h79q4 -28 19 -44.5zM526 0h-132l-7 69h-3q-20 -31 -57.5 -55.5t-95.5 -24.5q-79 0 -125.5 52.5t-46.5 160.5v287h153v-263q0 -114 76 -114q29 0 48 15.5t28 37.5
q5 11 5 33v291h153v-332q0 -75 4 -157z" />
    <glyph glyph-name="Uring" unicode="&#x16e;" horiz-adv-x="682" 
d="M426 858q30 -28 30 -71q0 -42 -31 -69.5t-83 -27.5q-53 0 -84.5 27.5t-31.5 68.5q0 43 31 71.5t85 28.5t84 -28zM307.5 820.5q-11.5 -14.5 -11.5 -33.5q0 -18 12.5 -32t31.5 -14q20 0 32.5 13.5t12.5 32.5q0 20 -12.5 34t-32.5 14q-21 0 -32.5 -14.5zM218 286
q0 -86 31.5 -130.5t90.5 -44.5q124 0 124 175v388h152v-378q0 -153 -73 -230t-208 -77q-131 0 -200.5 75.5t-69.5 233.5v376h153v-388z" />
    <glyph glyph-name="uring" unicode="&#x16f;" horiz-adv-x="583" 
d="M208.5 566.5q-31.5 27.5 -31.5 68.5q0 44 31 72.5t85 28.5q53 0 83 -28t30 -72q0 -42 -31 -69.5t-83 -27.5t-83.5 27.5zM325 603q12 14 12 34t-12.5 34.5t-33.5 14.5t-33 -15t-12 -35q0 -18 12.5 -32.5t32.5 -14.5q22 0 34 14zM526 0h-132l-7 69h-3q-20 -31 -57.5 -55.5
t-95.5 -24.5q-79 0 -125.5 52.5t-46.5 160.5v287h153v-263q0 -114 76 -114q29 0 48 15.5t28 37.5q5 11 5 33v291h153v-332q0 -75 4 -157z" />
    <glyph glyph-name="Uhungarumlaut" unicode="&#x170;" horiz-adv-x="682" 
d="M297 718h-104l65 117h141zM479 718h-105l65 117h141zM218 286q0 -86 31.5 -130.5t90.5 -44.5q124 0 124 175v388h152v-378q0 -153 -73 -230t-208 -77q-131 0 -200.5 75.5t-69.5 233.5v376h153v-388z" />
    <glyph glyph-name="uhungarumlaut" unicode="&#x171;" horiz-adv-x="583" 
d="M242 552h-85l63 149h120zM415 552h-85l63 149h120zM526 0h-132l-7 69h-3q-20 -31 -57.5 -55.5t-95.5 -24.5q-79 0 -125.5 52.5t-46.5 160.5v287h153v-263q0 -114 76 -114q29 0 48 15.5t28 37.5q5 11 5 33v291h153v-332q0 -75 4 -157z" />
    <glyph glyph-name="Uogonek" unicode="&#x172;" horiz-adv-x="682" 
d="M423.5 -209.5q-28.5 -8.5 -57.5 -8.5q-50 0 -77 23.5t-27 65.5q0 56 58 119h-6q-120 5 -184.5 80.5t-64.5 227.5v376h153v-388q0 -86 31.5 -130.5t90.5 -44.5q124 0 124 175v388h152v-378q0 -126 -50 -200.5t-143 -95.5q-54 -50 -54 -87q0 -17 12 -27t29 -10q22 0 43 9
l21 -71q-22 -15 -50.5 -23.5z" />
    <glyph glyph-name="uogonek" unicode="&#x173;" horiz-adv-x="583" 
d="M526 0h-49q-21 -38 -21 -68q0 -25 15.5 -40.5t38.5 -15.5q27 0 44 7l21 -71q-19 -15 -47.5 -23t-54.5 -8q-53 0 -82.5 27t-29.5 79q0 30 9.5 57.5t23.5 56.5l-7 68h-3q-20 -31 -57.5 -55.5t-95.5 -24.5q-79 0 -125.5 52.5t-46.5 160.5v287h153v-263q0 -114 76 -114
q29 0 48 15.5t28 37.5q5 11 5 33v291h153v-332q0 -77 4 -157z" />
    <glyph glyph-name="Wcircumflex" unicode="&#x174;" horiz-adv-x="888" 
d="M607 710h-107l-50 62h-2l-50 -62h-106l100 123h114zM15 674h163l51 -278q14 -77 40 -235h2q13 84 44 237l57 276h162l54 -284q20 -104 36 -226h2q7 55 30 182l9 52l55 276h155l-174 -674h-165l-57 290q-23 119 -32 208h-2q-20 -128 -39 -208l-64 -290h-167z" />
    <glyph glyph-name="wcircumflex" unicode="&#x175;" horiz-adv-x="759" 
d="M530 550h-99l-50 87h-2l-50 -87h-100l100 152h102zM205 289q18 -94 28 -161h2q10 56 36 160l52 201h120l49 -195q26 -110 36 -166h2q8 67 28 167l42 194h149l-150 -489h-143l-46 172q-17 68 -31 152h-2q-12 -81 -32 -152l-49 -172h-143l-142 489h155z" />
    <glyph glyph-name="Ycircumflex" unicode="&#x176;" horiz-adv-x="603" 
d="M459 710h-107l-50 62h-2l-50 -62h-106l100 123h114zM222 276l-213 398h174l69 -162q22 -51 52 -129h2q17 46 51 129l68 162h171l-222 -393v-281h-152v276z" />
    <glyph glyph-name="ycircumflex" unicode="&#x177;" horiz-adv-x="523" 
d="M418 550h-99l-51 87h-2l-50 -87h-99l99 152h103zM248 249q18 -67 24 -91h3q9 33 13 53l9 38l60 240h163l-114 -322q-50 -140 -89.5 -211t-82.5 -110q-65 -56 -147 -67l-32 129q31 5 66 26q17 9 34.5 25.5t28.5 35.5q8 11 8 22t-7 25l-179 447h169z" />
    <glyph glyph-name="Ydieresis" unicode="&#x178;" horiz-adv-x="603" 
d="M158 731q-20 20 -20 48q0 29 20.5 49t49.5 20q28 0 46.5 -20t18.5 -49q0 -28 -19 -48t-47 -20q-29 0 -49 20zM365.5 731q-19.5 20 -19.5 48q0 29 19.5 49t49.5 20q28 0 47.5 -20t19.5 -49q0 -28 -19.5 -48t-47.5 -20q-30 0 -49.5 20zM222 276l-213 398h174l69 -162
q22 -51 52 -129h2q17 46 51 129l68 162h171l-222 -393v-281h-152v276z" />
    <glyph glyph-name="Zacute" unicode="&#x179;" horiz-adv-x="577" 
d="M336 710h-122l84 123h160zM344 544v4h-291v126h489v-88l-314 -456v-4h319v-126h-524v82z" />
    <glyph glyph-name="zacute" unicode="&#x17a;" horiz-adv-x="469" 
d="M277 550h-105l86 152h141zM176 280q32 38 78 87v2h-215v120h400v-91l-147 -185q-6 -7 -31 -37t-49 -53v-2h235v-121h-425v87z" />
    <glyph glyph-name="Zdotaccent" unicode="&#x17b;" horiz-adv-x="577" 
d="M243 732.5q-20 20.5 -20 48.5q0 29 20.5 49t49.5 20q28 0 47.5 -20t19.5 -49q0 -28 -19.5 -48.5t-47.5 -20.5q-30 0 -50 20.5zM344 544v4h-291v126h489v-88l-314 -456v-4h319v-126h-524v82z" />
    <glyph glyph-name="zdotaccent" unicode="&#x17c;" horiz-adv-x="469" 
d="M188 577.5q-21 20.5 -21 49.5q0 31 20.5 51t51.5 20q29 0 48.5 -20t19.5 -51q0 -29 -19.5 -49.5t-48.5 -20.5q-30 0 -51 20.5zM176 280q32 38 78 87v2h-215v120h400v-91l-147 -185q-6 -7 -31 -37t-49 -53v-2h235v-121h-425v87z" />
    <glyph glyph-name="Zcaron" unicode="&#x17d;" horiz-adv-x="577" 
d="M137 833h107l50 -63h2l50 63h107l-101 -123h-114zM344 544v4h-291v126h489v-88l-314 -456v-4h319v-126h-524v82z" />
    <glyph glyph-name="zcaron" unicode="&#x17e;" horiz-adv-x="469" 
d="M89 702h99l51 -87h2l50 87h100l-100 -152h-103zM176 280q32 38 78 87v2h-215v120h400v-91l-147 -185q-6 -7 -31 -37t-49 -53v-2h235v-121h-425v87z" />
    <glyph glyph-name="florin" unicode="&#x192;" horiz-adv-x="555" 
d="M205 412l3 32q9 79 57 148t160 69q25 0 47 -4.5t36 -11.5l-24 -108q-22 9 -47 9q-70 0 -80 -90l-6 -44h102v-106h-115l-22 -178q-13 -104 -56.5 -161.5t-141.5 -57.5q-29 1 -54 6t-37 11l21 106q20 -8 47 -8q26 1 41 12.5t24 41.5t16 88l16 140h-78v106h91z" />
    <glyph glyph-name="Ohorn" unicode="&#x1a0;" horiz-adv-x="717" 
d="M732 660q0 -48 -26.5 -78.5t-78.5 -31.5q56 -89 56 -206q0 -109 -41.5 -189t-116.5 -123t-173 -43q-97 0 -169 45t-110 123t-38 175q0 101 40.5 181t115 126t172.5 46q61 0 123 -20q11 -4 33 -14q4 -2 19 -8t27 -9.5t20 -3.5q37 0 37 40q0 35 -22 73l108 19
q24 -48 24 -102zM478.5 174q43.5 64 43.5 165q0 62 -19 113t-56 81.5t-88 30.5t-88 -31t-56 -83.5t-19 -116.5q0 -63 20 -114t57 -80t87 -29q75 0 118.5 64z" />
    <glyph glyph-name="ohorn" unicode="&#x1a1;" horiz-adv-x="588" 
d="M607 490q0 -46 -25.5 -73.5t-71.5 -32.5q34 -58 34 -134q0 -86 -36 -144.5t-95 -87.5t-127 -29q-72 0 -129.5 30.5t-90.5 87.5t-33 134q0 78 32.5 136.5t91.5 90.5t137 32q47 0 89 -13l30 -11q36 -16 51 -16q35 0 35 36q0 33 -21 70l106 18q23 -46 23 -94zM214.5 349
q-24.5 -43 -24.5 -104q0 -65 26.5 -106t73.5 -41q44 0 70.5 40.5t26.5 106.5q0 61 -24.5 104t-72.5 43q-51 0 -75.5 -43z" />
    <glyph glyph-name="Uhorn" unicode="&#x1af;" horiz-adv-x="728" 
d="M740 704q0 -47 -26.5 -75.5t-80.5 -33.5l-17 -2v-297q0 -153 -73 -230t-208 -77q-131 0 -200.5 75.5t-69.5 233.5v376h153v-388q0 -86 31.5 -130.5t90.5 -44.5q124 0 124 175v388h116q30 0 41 9.5t11 29.5q0 33 -21 67l107 17q22 -44 22 -93z" />
    <glyph glyph-name="uhorn" unicode="&#x1b0;" horiz-adv-x="583" 
d="M622 523q0 -44 -25.5 -70.5t-66.5 -31.5l-8 -1v-263q0 -75 4 -157h-132l-7 69h-3q-20 -31 -57.5 -55.5t-95.5 -24.5q-79 0 -125.5 52.5t-46.5 160.5v287h153v-263q0 -114 76 -114q29 0 48 15.5t28 37.5q5 11 5 33v291h93q52 0 52 41q0 30 -21 66l106 18q23 -46 23 -91z
" />
    <glyph glyph-name="Aringacute" unicode="&#x1fa;" horiz-adv-x="656" 
d="M382 889h-126l108 93h166zM251 718.5q-29 25.5 -29 63.5t29 64t79 26t78 -25.5t28 -64.5t-28.5 -64t-78.5 -25q-49 0 -78 25.5zM360.5 754.5q11.5 10.5 11.5 27.5t-12.5 29t-32.5 12t-30.5 -12t-10.5 -29q0 -16 11.5 -27t30.5 -11q21 0 32.5 10.5zM175 0h-158l206 674
h200l209 -674h-164l-52 173h-193zM352 430q-10 34 -29 110l-5 20h-2l-12 -52q-13 -58 -19 -78l-40 -143h149z" />
    <glyph glyph-name="aringacute" unicode="&#x1fb;" horiz-adv-x="528" 
d="M305 745h-104l111 116h140zM181 552.5q-32 27.5 -32 69.5q0 43 31.5 71.5t85.5 28.5q53 0 82.5 -28t29.5 -72q0 -42 -31 -69.5t-82 -27.5q-52 0 -84 27.5zM298 589q12 14 12 34t-12.5 34.5t-34.5 14.5q-21 0 -32.5 -15t-11.5 -35q0 -18 12.5 -32.5t32.5 -14.5q22 0 34 14
zM330 49h-3q-24 -29 -60 -44.5t-80 -15.5q-48 0 -84 21t-55 55t-19 74q0 93 76.5 140.5t210.5 46.5v7q0 25 -19.5 44t-69.5 19q-36 0 -73 -10.5t-62 -26.5l-28 98q31 17 80.5 30t109.5 13q114 0 164.5 -58t50.5 -153v-170q0 -81 7 -119h-137zM217.5 214q-38.5 -18 -38.5 -60
q0 -28 16.5 -43t43.5 -15q28 0 49.5 16t29.5 40q3 12 3 26v53q-65 1 -103.5 -17z" />
    <glyph glyph-name="AEacute" unicode="&#x1fc;" horiz-adv-x="868" 
d="M518 710h-122l85 123h160zM290 674h513v-125h-277l18 -143h255v-124h-235l20 -157h256v-125h-387l-24 184h-196l-74 -184h-157zM392 469l-12 98h-3l-34 -99l-65 -162h134z" />
    <glyph glyph-name="aeacute" unicode="&#x1fd;" horiz-adv-x="803" 
d="M432 550h-104l86 152h140zM498 129.5q36 -27.5 94 -27.5q43 0 74.5 6.5t62.5 19.5l21 -102q-71 -37 -180 -37q-62 0 -112 23t-74 64h-4q-64 -87 -182 -87q-52 0 -90 20.5t-58.5 55.5t-20.5 77q0 88 78 134.5t211 45.5v14q0 10 -8 23.5t-29 24.5t-56 11t-70 -11t-61 -26
l-30 96q34 19 79 32.5t94 13.5q116 0 161 -79h3q29 38 71.5 58.5t95.5 20.5q69 0 115 -34.5t68 -90t22 -118.5q0 -18 -3 -54h-310q2 -46 38 -73.5zM615 370q-19 31 -65 31q-30 0 -50 -15.5t-30 -38t-11 -42.5h174q1 34 -18 65zM217.5 211q-39.5 -19 -39.5 -58q0 -27 18 -42
t45 -15t47 14.5t30 36.5q4 8 4 31v51q-65 1 -104.5 -18z" />
    <glyph glyph-name="Oslashacute" unicode="&#x1fe;" horiz-adv-x="717" 
d="M405 715h-121l84 123h160zM128 83q-45 47 -69 112.5t-24 140.5q0 99 41 178.5t114.5 125t169.5 45.5q84 0 149 -35l55 81l87 -58l-57 -84q44 -47 66.5 -111.5t22.5 -136.5q0 -108 -41.5 -187.5t-115 -122t-167.5 -42.5q-79 0 -144 34l-61 -89l-82 64zM360 566
q-80 0 -126 -63.5t-46 -165.5q0 -65 26 -123h1l223 328q-35 24 -78 24zM359 108q79 0 125 63.5t46 167.5q0 57 -22 114l-3 1l-220 -323q31 -23 74 -23z" />
    <glyph glyph-name="oslashacute" unicode="&#x1ff;" horiz-adv-x="577" 
d="M322 550h-105l86 152h141zM407 474l47 69l53 -37l-45 -67q40 -34 61 -83t21 -110q0 -83 -36 -141t-94.5 -87t-124.5 -29q-67 0 -116 26l-49 -71l-50 40l44 65q-41 33 -63 82.5t-22 112.5q0 76 32 134t90 90t133 32q70 0 119 -26zM288 392q-55 0 -82 -44t-27 -103
q0 -48 18 -78l2 -1l143 208q-25 18 -54 18zM288 98q50 0 79.5 39.5t29.5 104.5q0 45 -15 76l-3 1l-142 -203q19 -18 51 -18z" />
    <glyph glyph-name="uni0218" unicode="&#x218;" horiz-adv-x="540" 
d="M150.5 127q44.5 -12 89.5 -12q52 0 79.5 19.5t27.5 53.5q0 31 -25.5 52t-87.5 43q-185 64 -185 199q0 58 31 104t88.5 72.5t135.5 26.5q96 0 172 -34l-34 -123q-66 32 -141 32q-47 0 -72.5 -18.5t-25.5 -46.5q0 -30 27 -49t98 -46q90 -33 132.5 -81.5t42.5 -119.5
q0 -58 -30 -105.5t-91.5 -75.5t-150.5 -28q-55 0 -107.5 12t-83.5 29l31 126q35 -18 79.5 -30zM223 -155.5q19 15.5 19 39.5q0 25 -30 60l106 17q17 -12 28 -33t11 -46q0 -59 -44 -90t-114 -33l-23 64q28 6 47 21.5z" />
    <glyph glyph-name="uni0219" unicode="&#x219;" horiz-adv-x="434" 
d="M121 107.5q38 -11.5 70 -11.5q65 0 65 41q0 19 -14.5 30.5t-57.5 25.5q-72 24 -105.5 62t-33.5 83q0 46 24.5 83t69.5 58t105 21q41 0 77.5 -8t60.5 -20l-27 -105q-20 11 -48.5 19.5t-57.5 8.5q-28 0 -43 -10.5t-15 -29.5q0 -17 16.5 -28.5t62.5 -27.5q69 -24 100.5 -60
t32.5 -91q0 -71 -55 -114.5t-157 -43.5q-47 0 -88 9t-70 25l27 109q23 -14 61 -25.5zM168.5 -156q19.5 16 19.5 40q0 27 -29 60l106 17q16 -12 27.5 -33t11.5 -46q0 -59 -44.5 -90.5t-114.5 -33.5l-23 65q27 5 46.5 21z" />
    <glyph glyph-name="uni021A" unicode="&#x21a;" horiz-adv-x="548" 
d="M15 546v128h518v-128h-184v-546h-153v546h-181zM216 -155.5q19 15.5 19 39.5q0 27 -29 60l106 17q16 -12 27 -33t11 -46q0 -59 -44 -90t-114 -33l-23 64q28 6 47 21.5z" />
    <glyph glyph-name="uni021B" unicode="&#x21b;" horiz-adv-x="367" 
d="M231 489h109v-112h-109v-177q0 -46 13 -66t47 -20q23 0 45 4l1 -115q-32 -13 -99 -13q-36 0 -65.5 11.5t-48.5 30.5q-42 44 -42 145v200h-65v112h65v106l149 34v-140zM150 -157.5q19 15.5 19 39.5q0 28 -30 60l106 18q16 -12 27.5 -33.5t11.5 -46.5q0 -59 -44 -90
t-114 -34l-23 65q28 6 47 21.5z" />
    <glyph glyph-name="uni021C" unicode="&#x21c;" horiz-adv-x="537" 
d="M178.5 20.5q65.5 24.5 111.5 65t46 90.5q0 40 -29.5 68t-87.5 28q-18 0 -48 -4.5t-53 -12.5l-17 102q77 15 133 53t56 90q0 30 -25 49t-65 19q-33 0 -69.5 -10t-64.5 -24l-29 99q38 22 90.5 37t106.5 15q91 0 149 -42.5t58 -113.5q0 -52 -32.5 -94t-86.5 -67v-2
q77 -11 126.5 -58t49.5 -124q0 -84 -57 -153t-154 -110.5t-212 -45.5l-17 116q55 5 120.5 29.5z" />
    <glyph glyph-name="uni021D" unicode="&#x21d;" horiz-adv-x="474" 
d="M134.5 -79.5q58.5 12.5 105.5 44.5t47 86q0 33 -23 56.5t-78 23.5q-16 0 -40 -4.5t-45 -11.5l-21 102q170 35 170 109q0 28 -22 43t-62 15q-50 0 -120 -35l-27 99q34 23 84 37.5t103 14.5q89 0 140.5 -38t51.5 -106q0 -43 -25.5 -75t-78.5 -55v-3q71 -10 111 -51.5
t40 -105.5q0 -80 -54.5 -141.5t-144.5 -96t-195 -37.5l-17 116q42 1 100.5 13.5z" />
    <glyph glyph-name="uni0232" unicode="&#x232;" horiz-adv-x="603" 
d="M431 734h-259v81h259v-81zM222 276l-213 398h174l69 -162q22 -51 52 -129h2q17 46 51 129l68 162h171l-222 -393v-281h-152v276z" />
    <glyph glyph-name="uni0233" unicode="&#x233;" horiz-adv-x="523" 
d="M387 582h-251v83h251v-83zM248 249q18 -67 24 -91h3q9 33 13 53l9 38l60 240h163l-114 -322q-50 -140 -89.5 -211t-82.5 -110q-65 -56 -147 -67l-32 129q31 5 66 26q17 9 34.5 25.5t28.5 35.5q8 11 8 22t-7 25l-179 447h169z" />
    <glyph glyph-name="circumflex" unicode="&#x2c6;" 
d="M301 550h-99l-51 87h-2l-50 -87h-99l99 152h103z" />
    <glyph glyph-name="caron" unicode="&#x2c7;" 
d="M-1 702h99l51 -87h2l50 87h100l-100 -152h-103z" />
    <glyph glyph-name="uni02C9" unicode="&#x2c9;" 
d="M276 582h-251v83h251v-83z" />
    <glyph glyph-name="breve" unicode="&#x2d8;" 
d="M109 647.5q15 -16.5 40 -16.5q29 0 44 17.5t17 43.5h79q-1 -65 -37 -103.5t-103 -38.5t-102 39.5t-36 102.5h79q4 -28 19 -44.5z" />
    <glyph glyph-name="dotaccent" unicode="&#x2d9;" 
d="M71.5 577.5q-20.5 20.5 -20.5 49.5q0 31 20.5 51t50.5 20q29 0 48.5 -20t19.5 -51q0 -29 -19.5 -49.5t-48.5 -20.5q-30 0 -50.5 20.5z" />
    <glyph glyph-name="ring" unicode="&#x2da;" 
d="M58 566.5q-32 27.5 -32 68.5q0 44 31.5 72.5t85.5 28.5q53 0 82.5 -28t29.5 -72q0 -42 -31 -69.5t-82 -27.5q-52 0 -84 27.5zM175 603q12 14 12 34t-12.5 34.5t-34.5 14.5q-21 0 -32.5 -15t-11.5 -35q0 -18 12.5 -32.5t32.5 -14.5q22 0 34 14z" />
    <glyph glyph-name="ogonek" unicode="&#x2db;" 
d="M144.5 -36.5q-6.5 -16.5 -6.5 -34.5q0 -23 14.5 -38t38.5 -15q25 0 45 8l21 -71q-19 -15 -47.5 -23.5t-53.5 -8.5q-54 0 -83.5 27t-29.5 79q0 31 12.5 64t26.5 51h81q-12 -22 -18.5 -38.5z" />
    <glyph glyph-name="tilde" unicode="&#x2dc;" 
d="M28 654.5q22 34.5 62 34.5q17 0 31 -5t34 -15q3 -2 12.5 -8t16.5 -9t13 -3q12 0 18 9.5t8 35.5h70q4 -129 -82 -129q-19 0 -33 5.5t-36 16.5q-4 2 -12.5 7t-14 7t-11.5 2q-22 0 -24 -45h-72q-2 62 20 96.5z" />
    <glyph glyph-name="hungarumlaut" unicode="&#x2dd;" 
d="M83 552h-85l63 149h120zM257 552h-86l63 149h120z" />
    <glyph glyph-name="uni037E" unicode="&#x37e;" horiz-adv-x="260" 
d="M81 337.5q-25 25.5 -25 63.5q0 42 24.5 68t64.5 26t64 -25.5t25 -66.5q0 -40 -24.5 -65.5t-64.5 -25.5q-39 0 -64 25.5zM75 165l153 10q-25 -79 -58 -153.5t-68 -131.5l-100 -9q50 143 73 284z" />
    <glyph glyph-name="tonos" unicode="&#x384;" horiz-adv-x="303" 
d="M183 550h-100l46 152h135z" />
    <glyph glyph-name="dieresistonos" unicode="&#x385;" horiz-adv-x="435" 
d="M237 554h-78l21 175h112zM24 582.5q-18 18.5 -18 44.5t18.5 44t45.5 18q25 0 42.5 -17.5t17.5 -44.5q0 -26 -17.5 -44.5t-43.5 -18.5q-27 0 -45 18.5zM320 582.5q-18 18.5 -18 44.5t18 44t45 18q26 0 43.5 -17.5t17.5 -44.5q0 -26 -17.5 -44.5t-44.5 -18.5
q-26 0 -44 18.5z" />
    <glyph glyph-name="Alphatonos" unicode="&#x386;" horiz-adv-x="664" 
d="M106 500h-87l2 174h122zM183 0h-158l206 674h199l210 -674h-164l-52 173h-194zM359 430l-25 99q-7 25 -8 31h-3l-6 -27q-4 -19 -10 -45.5t-14 -57.5l-41 -143h149z" />
    <glyph glyph-name="anoteleia" unicode="&#x387;" horiz-adv-x="277" 
d="M67.5 242.5q-27.5 28.5 -27.5 72.5t28 72.5t71 28.5t70 -28t28 -73q0 -45 -27 -73t-72 -28q-43 0 -70.5 28.5z" />
    <glyph glyph-name="Epsilontonos" unicode="&#x388;" horiz-adv-x="642" 
d="M87 500h-87l2 174h122zM327 285v-160h277v-125h-429v674h415v-125h-263v-140h248v-124h-248z" />
    <glyph glyph-name="Etatonos" unicode="&#x389;" horiz-adv-x="797" 
d="M87 500h-87l2 174h122zM327 415h251v259h152v-674h-152v282h-251v-282h-153v674h153v-259z" />
    <glyph glyph-name="Iotatonos" unicode="&#x38a;" horiz-adv-x="393" 
d="M87 500h-87l2 174h122zM327 0h-152v674h152v-674z" />
    <glyph glyph-name="Omicrontonos" unicode="&#x38c;" horiz-adv-x="792" 
d="M609.5 639.5q72.5 -45.5 110 -123t37.5 -172.5q0 -109 -41 -189t-116 -123t-173 -43q-97 0 -169.5 45t-110.5 123t-38 175q0 101 41 181t115.5 126t171.5 46q100 0 172.5 -45.5zM87 500h-87l2 174h122zM314 500q-44 -64 -44 -165q0 -100 44.5 -162.5t119.5 -62.5
t118.5 64t43.5 165q0 62 -19 113t-55.5 81.5t-87.5 30.5q-76 0 -120 -64z" />
    <glyph glyph-name="Upsilontonos" unicode="&#x38e;" horiz-adv-x="776" 
d="M285 656.5q54 -22.5 93 -66.5q74 -80 88 -216h7q8 62 33 115.5t62 94.5q39 42 88.5 68t89.5 28l24 -129q-71 -20 -132 -94.5t-85 -172.5q-17 -71 -17 -138v-146h-153v147q0 69 -11 132q-21 113 -74 186t-139 89l24 126q48 -1 102 -23.5zM87 500h-87l2 174h122z" />
    <glyph glyph-name="Omegatonos" unicode="&#x38f;" horiz-adv-x="815" 
d="M102 115h133v4q-50 40 -85 104t-35 146q0 87 42 159.5t118 114.5t173 42q99 0 172.5 -42.5t111.5 -112.5t38 -150q0 -87 -36 -152t-87 -109v-4h135v-115h-297v89q57 43 92.5 109t35.5 152q0 58 -20.5 107t-58.5 78t-89 29t-90 -28.5t-60.5 -77.5t-21.5 -108
q0 -81 37 -154t91 -107v-89h-299v115zM87 500h-87l2 174h122z" />
    <glyph glyph-name="iotadieresistonos" unicode="&#x390;" horiz-adv-x="280" 
d="M167 545h-78l21 175h112zM-46 573.5q-18 18.5 -18 44.5t18.5 44t44.5 18t43.5 -17.5t17.5 -44.5q0 -26 -17.5 -44.5t-43.5 -18.5q-27 0 -45 18.5zM249.5 573q-17.5 18 -17.5 45q0 26 18 44t44 18q27 0 44.5 -17.5t17.5 -44.5t-17.5 -45t-44.5 -18t-44.5 18zM224 114
q11 -11 35 -9l-8 -106q-10 -4 -28 -7t-36 -3q-63 0 -94.5 33t-31.5 116v351h152v-337q0 -27 11 -38z" />
    <glyph glyph-name="Alpha" unicode="&#x391;" horiz-adv-x="656" 
d="M175 0h-158l206 674h200l209 -674h-164l-52 173h-193zM352 430q-10 34 -29 110l-5 20h-2l-12 -52q-13 -58 -19 -78l-40 -143h149z" />
    <glyph glyph-name="Beta" unicode="&#x392;" horiz-adv-x="604" 
d="M151.5 675q55.5 4 111.5 4q72 0 117.5 -8.5t81.5 -29.5q37 -20 59 -54t22 -78q0 -47 -28 -85.5t-83 -58.5v-2q60 -16 97 -59.5t37 -106.5q0 -86 -70 -143q-77 -61 -265 -61q-97 0 -165 10v662q30 6 85.5 10zM267 407q59 0 91 22.5t32 60.5t-28 58t-80 20q-39 0 -65 -4
v-157h50zM276 106q57 0 93.5 23.5t36.5 73.5q0 48 -38 71.5t-99 23.5h-52v-190q15 -2 59 -2z" />
    <glyph glyph-name="Gamma" unicode="&#x393;" horiz-adv-x="482" 
d="M475 546h-256v-546h-153v674h409v-128z" />
    <glyph glyph-name="uni0394" unicode="&#x394;" horiz-adv-x="648" 
d="M232 674h185l212 -597v-77h-613v76zM359 407q-25 79 -41 144h-4q-22 -87 -37 -135l-96 -291h273z" />
    <glyph glyph-name="Epsilon" unicode="&#x395;" horiz-adv-x="534" 
d="M219 285v-160h277v-125h-430v674h416v-125h-263v-140h248v-124h-248z" />
    <glyph glyph-name="Zeta" unicode="&#x396;" horiz-adv-x="577" 
d="M344 544v4h-291v126h489v-88l-314 -456v-4h319v-126h-524v82z" />
    <glyph glyph-name="Eta" unicode="&#x397;" horiz-adv-x="689" 
d="M219 415h251v259h152v-674h-152v282h-251v-282h-153v674h153v-259z" />
    <glyph glyph-name="Theta" unicode="&#x398;" horiz-adv-x="719" 
d="M184 34q-72 45 -110.5 123t-38.5 175q0 101 41 181t115.5 126t172.5 46q100 0 173 -45.5t110.5 -123.5t37.5 -172q0 -109 -41.5 -189t-116.5 -123t-173 -43t-170 45zM480.5 173.5q43.5 63.5 43.5 165.5q0 62 -19.5 113.5t-56.5 81.5t-88 30t-88.5 -30t-57 -82t-19.5 -116
t20 -115.5t57.5 -81t87.5 -29.5q77 0 120.5 63.5zM464 282h-210v123h210v-123z" />
    <glyph glyph-name="Iota" unicode="&#x399;" horiz-adv-x="285" 
d="M219 0h-153v674h153v-674z" />
    <glyph glyph-name="Kappa" unicode="&#x39a;" horiz-adv-x="614" 
d="M217 674v-298h3q10 18 32 52l14 22l153 224h187l-223 -287l235 -387h-178l-165 291l-58 -71v-220h-151v674h151z" />
    <glyph glyph-name="Lambda" unicode="&#x39b;" horiz-adv-x="648" 
d="M352 404q-13 51 -29 120l-6 24h-2l-9 -45q-17 -79 -22 -100l-107 -403h-160l206 674h197l213 -674h-166z" />
    <glyph glyph-name="Mu" unicode="&#x39c;" horiz-adv-x="846" 
d="M630 535h-3q-31 -128 -75 -261l-82 -263h-119l-72 261q-38 136 -61 263h-2l-4 -99q-3 -84 -8 -180l-12 -256h-141l43 674h203l66 -225q38 -142 57 -241h3q34 140 64 242l72 224h199l37 -674h-149l-10 258q-6 162 -6 277z" />
    <glyph glyph-name="Nu" unicode="&#x39d;" horiz-adv-x="690" 
d="M66 674h178l140 -247q63 -112 110 -231h3q-13 116 -13 281v197h140v-674h-160l-144 260q-71 128 -117 238l-3 -1q6 -133 6 -294v-203h-140v674z" />
    <glyph glyph-name="Xi" unicode="&#x39e;" horiz-adv-x="574" 
d="M524 550h-468v124h468v-124zM492 284h-404v123h404v-123zM538 0h-496v125h496v-125z" />
    <glyph glyph-name="Omicron" unicode="&#x39f;" horiz-adv-x="717" 
d="M535.5 639.5q72.5 -45.5 110 -123t37.5 -172.5q0 -109 -41.5 -189t-116.5 -123t-173 -43q-97 0 -169 45t-110 123t-38 175q0 101 40.5 181t115 126t172.5 46q100 0 172.5 -45.5zM239.5 500q-43.5 -64 -43.5 -165q0 -100 44.5 -162.5t119.5 -62.5t118.5 64t43.5 165
q0 62 -19 113t-56 81.5t-88 30.5q-76 0 -119.5 -64z" />
    <glyph glyph-name="Pi" unicode="&#x3a0;" horiz-adv-x="667" 
d="M448 0v546h-229v-546h-153v674h534v-674h-152z" />
    <glyph glyph-name="Rho" unicode="&#x3a1;" horiz-adv-x="581" 
d="M272 679q139 0 206 -54q33 -26 52.5 -67t19.5 -89q0 -49 -16 -90t-46 -70q-75 -71 -219 -71q-31 0 -52 3v-241h-151v665q82 14 206 14zM268 355q61 0 96 29t35 81q0 47 -31 73t-88 26q-41 0 -63 -6v-199q17 -4 51 -4z" />
    <glyph glyph-name="Sigma" unicode="&#x3a3;" horiz-adv-x="578" 
d="M545 125v-125h-515v86l200 248l-189 241v99h478v-125h-284v-3l158 -206l-169 -211v-4h321z" />
    <glyph glyph-name="Tau" unicode="&#x3a4;" horiz-adv-x="548" 
d="M15 546v128h518v-128h-184v-546h-153v546h-181z" />
    <glyph glyph-name="Upsilon" unicode="&#x3a5;" horiz-adv-x="625" 
d="M134 656.5q54 -22.5 93 -66.5q74 -80 88 -216h7q8 62 33 115.5t62 94.5q39 42 88.5 68t89.5 28l24 -129q-71 -20 -132 -94.5t-85 -172.5q-17 -71 -17 -138v-146h-153v147q0 66 -10 132q-21 113 -74.5 186t-138.5 89l23 126q48 -1 102 -23.5z" />
    <glyph glyph-name="Phi" unicode="&#x3a6;" horiz-adv-x="785" 
d="M320 -28v55q-76 9 -141 45.5t-105 103t-40 158.5q0 95 43 163.5t109 106t136 46.5v52h142v-52q76 -9 141 -46.5t105.5 -104.5t40.5 -159q0 -91 -39.5 -158t-105 -106t-143.5 -49v-55h-143zM257 513q-31 -25 -50.5 -70.5t-19.5 -108.5q0 -56 19.5 -99.5t50.5 -69t64 -31.5
v410q-33 -6 -64 -31zM558 194.5q40 50.5 40 140.5q0 64 -19.5 109.5t-50 70t-65.5 29.5v-410q55 10 95 60.5z" />
    <glyph glyph-name="Chi" unicode="&#x3a7;" horiz-adv-x="613" 
d="M360 122q-13 24 -26 51t-20 41l-14 29h-2q-15 -41 -38 -90l-14 -31l-56 -122h-174l195 341l-188 333h175l59 -123q28 -58 51 -112h2q16 44 46 112l57 123h174l-190 -329l200 -345h-176z" />
    <glyph glyph-name="Psi" unicode="&#x3a8;" horiz-adv-x="742" 
d="M630 263.5q-72 -72.5 -188 -79.5v-184h-140v184q-114 7 -187 71t-73 191v228h146v-205q0 -89 30 -127t84 -42v374h139v-375q53 4 83.5 49t30.5 153v173h147v-195q0 -143 -72 -215.5z" />
    <glyph glyph-name="uni03A9" unicode="&#x3a9;" horiz-adv-x="744" 
d="M32 115h133v4q-50 40 -85.5 104t-35.5 146q0 87 42.5 159.5t118.5 114.5t173 42q99 0 172 -42.5t111 -112.5t38 -150q0 -88 -36 -152.5t-86 -108.5v-4h135v-115h-297v89q56 43 91.5 109t35.5 152q0 58 -20.5 107t-58.5 78t-88 29q-51 0 -90.5 -28.5t-61 -77.5t-21.5 -108
q0 -80 37.5 -153.5t91.5 -107.5v-89h-299v115z" />
    <glyph glyph-name="Iotadieresis" unicode="&#x3aa;" horiz-adv-x="285" 
d="M-10 734q-20 20 -20 48q0 29 20.5 49t49.5 20q28 0 46.5 -20t18.5 -49q0 -28 -19 -48t-46 -20q-30 0 -50 20zM197.5 734q-19.5 20 -19.5 48q0 29 20 49t49 20q28 0 47.5 -20t19.5 -49q0 -28 -19.5 -48t-47.5 -20q-30 0 -49.5 20zM219 0h-153v674h153v-674z" />
    <glyph glyph-name="Upsilondieresis" unicode="&#x3ab;" horiz-adv-x="625" 
d="M164.5 718q-19.5 20 -19.5 48q0 29 20 49t49 20q28 0 47 -20t19 -49q0 -28 -19 -48t-47 -20q-30 0 -49.5 20zM372.5 718q-19.5 20 -19.5 48q0 29 19.5 49t48.5 20q28 0 47.5 -20t19.5 -49q0 -28 -19 -48t-48 -20t-48.5 20zM134 656.5q54 -22.5 93 -66.5q74 -80 88 -216h7
q8 62 33 115.5t62 94.5q39 42 88.5 68t89.5 28l24 -129q-71 -20 -132 -94.5t-85 -172.5q-17 -71 -17 -138v-146h-153v147q0 66 -10 132q-21 113 -74.5 186t-138.5 89l23 126q48 -1 102 -23.5z" />
    <glyph glyph-name="alphatonos" unicode="&#x3ac;" horiz-adv-x="583" 
d="M341 548h-101l46 152h135zM522 336q-4 -92 -4 -166q0 -39 12 -54t34 -13l-9 -106q-6 -3 -22 -5.5t-31 -2.5q-85 0 -106 89h-2q-26 -44 -66.5 -66.5t-90.5 -22.5q-57 0 -103.5 30.5t-73.5 86t-27 128.5q0 79 32 139.5t83 93.5t107 33q44 0 78.5 -19t55.5 -56h4q4 35 12 64
h127q-6 -61 -10 -153zM213 147q26 -38 66 -38q32 0 56.5 26.5t32.5 64.5q3 26 3 49q0 29 -2 41q-7 42 -30.5 68t-55.5 26q-43 0 -69.5 -41t-26.5 -101q0 -57 26 -95z" />
    <glyph glyph-name="epsilontonos" unicode="&#x3ad;" horiz-adv-x="468" 
d="M299 548h-100l46 152h135zM358.5 0q-52.5 -11 -103.5 -11q-92 0 -157 36.5t-65 114.5q0 44 31 76t76 41v5q-40 13 -62 39.5t-22 62.5q0 35 23.5 66t71.5 50.5t118 19.5q102 0 164 -37l-26 -96q-21 12 -52.5 20t-62.5 8q-39 0 -61 -13t-22 -34q0 -43 112 -43h48v-99h-47
q-59 -1 -92 -11.5t-33 -37.5t28.5 -41t69.5 -14q32 0 68.5 8.5t62.5 21.5l21 -98q-36 -23 -88.5 -34z" />
    <glyph glyph-name="etatonos" unicode="&#x3ae;" horiz-adv-x="586" 
d="M342 548h-100l46 152h135zM61 333q0 107 -16 156h134q15 -28 17 -67h3q19 30 58 54t93 24q79 0 127 -53t48 -157v-316q0 -130 11 -172h-145q-10 16 -14 65t-4 108v296q0 50 -18.5 78t-58.5 28q-29 0 -48.5 -16.5t-28.5 -40.5q-6 -13 -6 -38v-282h-152v333z" />
    <glyph glyph-name="iotatonos" unicode="&#x3af;" horiz-adv-x="280" 
d="M185 549h-101l46 152h136zM224 114q11 -11 35 -9l-8 -106q-10 -4 -28 -7t-36 -3q-63 0 -94.5 33t-31.5 116v351h152v-337q0 -27 11 -38z" />
    <glyph glyph-name="upsilondieresistonos" unicode="&#x3b0;" horiz-adv-x="558" 
d="M296 544h-78l21 175h112zM83.5 572.5q-18.5 18.5 -18.5 44.5t18.5 44t45.5 18q26 0 43 -17.5t17 -44.5q0 -26 -17.5 -44.5t-42.5 -18.5q-27 0 -45.5 18.5zM379 572.5q-18 18.5 -18 44.5t18 44t45 18q26 0 43.5 -17.5t17.5 -44.5q0 -26 -17.5 -44.5t-43.5 -18.5
q-27 0 -45 18.5zM509 409q11 -49 11 -106q0 -132 -59.5 -223t-190.5 -91q-96 0 -156.5 54t-60.5 157v127q0 124 -12 162h149q8 -9 11.5 -31t3.5 -64v-184q0 -47 22 -72.5t55 -25.5q45 0 67 50.5t22 130.5q0 58 -10 114.5t-20 81.5h142q15 -31 26 -80z" />
    <glyph glyph-name="alpha" unicode="&#x3b1;" horiz-adv-x="583" 
d="M522 336q-4 -92 -4 -166q0 -39 12 -54t34 -13l-9 -106q-6 -3 -22 -5.5t-31 -2.5q-85 0 -106 89h-2q-26 -44 -66.5 -66.5t-90.5 -22.5q-57 0 -103.5 30.5t-73.5 86t-27 128.5q0 79 32 139.5t83 93.5t107 33q44 0 78.5 -19t55.5 -56h4q4 35 12 64h127q-6 -61 -10 -153z
M213 147q26 -38 66 -38q32 0 56.5 26.5t32.5 64.5q3 26 3 49q0 29 -2 41q-7 42 -30.5 68t-55.5 26q-43 0 -69.5 -41t-26.5 -101q0 -57 26 -95z" />
    <glyph glyph-name="beta" unicode="&#x3b2;" horiz-adv-x="587" 
d="M205 -24q0 -121 13 -174h-142q-9 20 -13.5 67.5t-4.5 103.5v440q0 101 21 157.5t58 90.5q63 60 164 60q62 0 107 -24.5t68.5 -66t23.5 -92.5q0 -44 -22 -87t-59 -62v-6q36 -8 67 -33.5t49.5 -64t18.5 -85.5q0 -62 -28 -110t-76.5 -74.5t-108.5 -26.5q-85 0 -134 45h-2
v-58zM302 103q47 0 72.5 29.5t25.5 72.5q0 50 -30.5 79t-77.5 33q-5 1 -11.5 0.5t-10.5 -0.5v93q7 0 16 3q36 7 56.5 34.5t20.5 65.5q0 40 -19.5 65t-52.5 25q-86 0 -86 -162v-288q40 -50 97 -50z" />
    <glyph glyph-name="gamma" unicode="&#x3b3;" horiz-adv-x="515" 
d="M173 -118q0 118 -17 199q-23 110 -70.5 217.5t-98.5 190.5h169q29 -45 64 -141t53 -193h4q30 66 51.5 143.5t21.5 147.5q0 17 -0.5 27t-0.5 16h145q2 -18 2 -37q0 -91 -47 -204.5t-126 -228.5q-6 -10 -6 -24l3 -193h-148q1 27 1 80z" />
    <glyph glyph-name="delta" unicode="&#x3b4;" horiz-adv-x="576" 
d="M409 601q-37 12 -72 12q-54 0 -54 -26q0 -10 11.5 -21.5t44.5 -38.5l81 -65q122 -96 122 -221q0 -75 -34.5 -132.5t-93 -88.5t-130.5 -31q-70 0 -127.5 30.5t-90.5 85.5t-33 126q0 84 47.5 143t117.5 92v4l-19 17q-23 22 -39 46t-16 56q0 33 23.5 63.5t68.5 49.5t107 19
q57 0 105 -15t73 -34l-39 -95q-16 12 -53 24zM214 330q-25 -40 -25 -96q0 -57 30 -96.5t74 -39.5q42 0 69.5 36t27.5 94q0 35 -16.5 69t-47.5 60l-46 38q-41 -25 -66 -65z" />
    <glyph glyph-name="epsilon" unicode="&#x3b5;" horiz-adv-x="468" 
d="M358.5 0q-52.5 -11 -103.5 -11q-92 0 -157 36.5t-65 114.5q0 44 31 76t76 41v5q-40 13 -62 39.5t-22 62.5q0 35 23.5 66t71.5 50.5t118 19.5q102 0 164 -37l-26 -96q-21 12 -52.5 20t-62.5 8q-39 0 -61 -13t-22 -34q0 -43 112 -43h48v-99h-47q-59 -1 -92 -11.5t-33 -37.5
t28.5 -41t69.5 -14q32 0 68.5 8.5t62.5 21.5l21 -98q-36 -23 -88.5 -34z" />
    <glyph glyph-name="zeta" unicode="&#x3b6;" horiz-adv-x="441" 
d="M282.5 -75q8.5 32 10.5 51q-61 10 -112 29q-64 25 -105 78.5t-41 142.5q0 98 54 197.5t148 175.5v5h-47q-74 0 -112 13l14 96q32 -3 140 -3h185l22 -99q-65 -29 -122.5 -87t-91.5 -129.5t-34 -139.5q0 -105 85 -144q28 -14 64 -22t84 -15q4 -1 7 -5t3 -9
q0 -50 -22 -112.5t-52 -99.5l-94 30q8 15 16.5 47z" />
    <glyph glyph-name="eta" unicode="&#x3b7;" horiz-adv-x="586" 
d="M61 333q0 107 -16 156h134q15 -28 17 -67h3q19 30 58 54t93 24q79 0 127 -53t48 -157v-316q0 -130 11 -172h-145q-10 16 -14 65t-4 108v296q0 50 -18.5 78t-58.5 28q-29 0 -48.5 -16.5t-28.5 -40.5q-6 -13 -6 -38v-282h-152v333z" />
    <glyph glyph-name="theta" unicode="&#x3b8;" horiz-adv-x="570" 
d="M99 84q-66 95 -66 276q0 104 29.5 186t88 128.5t141.5 46.5q122 0 183.5 -97t61.5 -264q0 -173 -63.5 -272t-188.5 -99q-120 0 -186 95zM360 559.5q-26 55.5 -74 55.5q-49 0 -76 -56t-27 -143h203q0 88 -26 143.5zM211 152q27 -57 77 -57t75 57t25 156h-204
q0 -99 27 -156z" />
    <glyph glyph-name="iota" unicode="&#x3b9;" horiz-adv-x="280" 
d="M224 114q11 -11 35 -9l-8 -106q-10 -4 -28 -7t-36 -3q-63 0 -94.5 33t-31.5 116v351h152v-337q0 -27 11 -38z" />
    <glyph glyph-name="kappa" unicode="&#x3ba;" horiz-adv-x="548" 
d="M61 365q0 38 -4 75.5t-10 48.5h150q7 -8 11.5 -31t4.5 -56v-117h3q41 51 118 163l29 41h173v-5l-192 -217v-4q31 -8 58.5 -40t61.5 -89l78 -134h-174l-55 98q-30 51 -50 75.5t-43 25.5h-7v-199h-152v365z" />
    <glyph glyph-name="lambda" unicode="&#x3bb;" horiz-adv-x="518" 
d="M256 325h-6q-6 -35 -23 -101l-65 -224h-158l171 449q5 13 5 26q0 12 -7 29q-16 43 -44 69.5t-58 26.5q-15 0 -22 -1l13 117q17 5 51 5q77 0 126 -58t90 -169l184 -494h-162l-67 221q-16 52 -28 104z" />
    <glyph glyph-name="uni03BC" unicode="&#x3bc;" horiz-adv-x="585" 
d="M342.5 15q-31.5 -22 -75.5 -22q-20 0 -38 7.5t-31 21.5v-42q0 -47 3 -99.5t8 -78.5h-135q-6 17 -9.5 67.5t-3.5 109.5v510h152v-273q0 -50 19 -77.5t55 -27.5q27 0 49 16.5t30 37.5q5 15 5 33v291h152v-330q0 -31 10 -43t32 -13l-9 -105q-18 -9 -54 -9q-43 0 -71.5 20
t-39.5 58h-3q-14 -30 -45.5 -52z" />
    <glyph glyph-name="nu" unicode="&#x3bd;" horiz-adv-x="510" 
d="M228 262q11 -37 18 -70q8 -34 13 -51h4q35 75 59 157t24 152q0 26 -1 39h143q3 -16 3 -38q0 -94 -47 -206t-128 -245h-147l-170 489h164z" />
    <glyph glyph-name="xi" unicode="&#x3be;" horiz-adv-x="472" 
d="M368 333q-83 0 -128 -31t-45 -85q0 -43 31.5 -72t100.5 -47q52 -14 127 -25q11 -2 11 -13q0 -45 -22.5 -110.5t-50.5 -101.5l-94 30q7 16 14.5 47.5t9.5 50.5q-124 19 -206.5 66t-82.5 158q0 71 42.5 124t109.5 71v6q-50 19 -77 56.5t-27 86.5q0 47 26.5 87.5t79 65
t125.5 24.5q80 0 139 -27l-25 -99q-19 9 -42.5 14t-46.5 5q-49 0 -76 -25t-27 -62q0 -80 128 -90q11 -1 34 -1v-103h-28z" />
    <glyph glyph-name="omicron" unicode="&#x3bf;" horiz-adv-x="577" 
d="M425 468.5q57 -31.5 88 -88.5t31 -130q0 -86 -36 -144.5t-95 -87.5t-127 -29q-72 0 -129.5 30.5t-90.5 87.5t-33 134q0 78 32.5 136.5t91.5 90.5t137 32q74 0 131 -31.5zM214.5 349q-24.5 -43 -24.5 -104q0 -65 26.5 -106t73.5 -41q44 0 70.5 40.5t26.5 106.5
q0 61 -24.5 104t-72.5 43q-51 0 -75.5 -43z" />
    <glyph glyph-name="pi" unicode="&#x3c0;" horiz-adv-x="600" 
d="M510 153q0 -96 11 -153h-145q-17 24 -17 142v232h-106q-1 -91 -16.5 -205.5t-37.5 -168.5h-146q22 73 38 185t15 189q-58 0 -87 -7l-16 89q35 33 175 33h405l-14 -115h-59v-221z" />
    <glyph glyph-name="rho" unicode="&#x3c1;" horiz-adv-x="591" 
d="M60 -130.5q-3 50.5 -3 105.5v222q0 98 25 153.5t68 91.5q35 29 75.5 43.5t90.5 14.5q72 0 127 -31.5t85 -89t30 -132.5q0 -82 -32.5 -140.5t-84.5 -88t-110 -29.5q-40 0 -71 13t-49 35h-2v-63q0 -134 7 -172h-148q-5 17 -8 67.5zM212 166q7 -23 32 -41.5t56 -18.5
q49 0 76.5 38.5t27.5 99.5q0 59 -26 95.5t-70 36.5t-71.5 -38t-27.5 -106v-36q0 -15 3 -30z" />
    <glyph glyph-name="uni03C2" unicode="&#x3c2;" horiz-adv-x="458" 
d="M327 386q-60 0 -98.5 -41.5t-38.5 -105.5q0 -99 103 -132q31 -10 67.5 -18t72.5 -14q9 -1 9 -14q0 -51 -22.5 -117t-49.5 -97l-95 30q8 15 15.5 46.5t10.5 51.5q-9 2 -33 7t-44 11q-85 24 -138 81.5t-53 154.5q0 70 34 132.5t99 100.5t154 38q76 0 124 -24l-30 -107
q-45 17 -87 17z" />
    <glyph glyph-name="sigma" unicode="&#x3c3;" horiz-adv-x="594" 
d="M472 397l-1 -5q31 -28 47.5 -69t16.5 -81q0 -84 -34.5 -141t-91 -84.5t-123.5 -27.5q-72 0 -129.5 30t-90.5 86.5t-33 133.5q0 79 33 138t94 91t144 32h281l-7 -110q-37 0 -106 7zM358.5 139q26.5 41 26.5 107q0 60 -23.5 103t-70.5 43q-51 0 -76 -43t-25 -104
q0 -65 26 -106t72 -41q44 0 70.5 41z" />
    <glyph glyph-name="tau" unicode="&#x3c4;" horiz-adv-x="452" 
d="M288 -11q-79 0 -112 42t-33 131v212h-41q-55 0 -92 -7l-19 90q20 14 58.5 23t113.5 9h280l-15 -115h-133v-202q0 -36 13 -51t37 -15h19l-6 -106q-24 -11 -70 -11z" />
    <glyph glyph-name="upsilon" unicode="&#x3c5;" horiz-adv-x="558" 
d="M509 409q11 -49 11 -106q0 -132 -59.5 -223t-190.5 -91q-96 0 -156.5 54t-60.5 157v127q0 124 -12 162h149q8 -9 11.5 -31t3.5 -64v-184q0 -47 22 -72.5t55 -25.5q45 0 67 50.5t22 130.5q0 58 -10 114.5t-20 81.5h142q15 -31 26 -80z" />
    <glyph glyph-name="phi" unicode="&#x3c6;" horiz-adv-x="711" 
d="M208.5 351.5q-24.5 -42.5 -24.5 -100.5q0 -62 29 -104.5t78 -53.5v233q0 88 46.5 131t114.5 43q58 0 109.5 -30.5t83.5 -86.5t32 -127q0 -79 -36 -137t-93.5 -91t-121.5 -39v-187h-135v187q-69 6 -127.5 35.5t-94.5 86t-36 137.5q0 65 28 118t69.5 87t81.5 47l57 -82
q-36 -24 -60.5 -66.5zM503.5 143q29.5 42 29.5 110q0 40 -12 73t-30.5 52t-38.5 19q-12 0 -19 -10.5t-7 -29.5v-265q48 9 77.5 51z" />
    <glyph glyph-name="chi" unicode="&#x3c7;" horiz-adv-x="504" 
d="M263 268h4q14 39 35 86l56 135h145l-169 -332l169 -349l-144 -34l-115 256l-5 -1q-7 -15 -12 -31q-21 -52 -26 -62l-72 -162l-129 35l173 348l-168 332h163z" />
    <glyph glyph-name="psi" unicode="&#x3c8;" horiz-adv-x="726" 
d="M56 257v108q0 87 -7 124h138q14 -17 14 -95v-126q0 -164 101 -173v522h134v-522q53 1 80.5 56.5t27.5 136.5q0 67 -10 123t-21 78h135q40 -70 40 -191q0 -125 -60.5 -213t-190.5 -96v-187h-136v187q-245 17 -245 268z" />
    <glyph glyph-name="omega" unicode="&#x3c9;" horiz-adv-x="733" 
d="M447 138.5q13 -22.5 36 -22.5q30 0 49.5 39.5t19.5 111.5q0 63 -18 122.5t-51 97.5v2h138q31 -30 55 -91.5t24 -136.5q0 -85 -27 -146.5t-73.5 -93.5t-103.5 -32q-43 0 -78.5 20.5t-51.5 56.5h-5q-21 -35 -54.5 -56t-76.5 -21q-52 0 -97 29.5t-72.5 88t-27.5 141.5
q0 78 23.5 140.5t57.5 100.5h137v-2q-32 -42 -51.5 -102.5t-19.5 -126.5q0 -69 20.5 -105.5t48.5 -36.5q22 0 35 22.5t12 56.5l-2 177h143l-3 -176q0 -35 13 -57.5z" />
    <glyph glyph-name="iotadieresis" unicode="&#x3ca;" horiz-adv-x="280" 
d="M-14 567q-21 21 -21 50q0 30 21 50t51 20q29 0 48.5 -20t19.5 -50t-19.5 -50.5t-48.5 -20.5q-30 0 -51 21zM196.5 566.5q-20.5 20.5 -20.5 50.5t20.5 50t50.5 20t49.5 -19.5t19.5 -50.5q0 -30 -19.5 -50.5t-49.5 -20.5t-50.5 20.5zM224 114q11 -11 35 -9l-8 -106
q-10 -4 -28 -7t-36 -3q-63 0 -94.5 33t-31.5 116v351h152v-337q0 -27 11 -38z" />
    <glyph glyph-name="upsilondieresis" unicode="&#x3cb;" horiz-adv-x="558" 
d="M116.5 566.5q-20.5 20.5 -20.5 49.5q0 31 20.5 50.5t51.5 19.5q29 0 48 -19.5t19 -50.5q0 -29 -19.5 -49.5t-47.5 -20.5q-31 0 -51.5 20.5zM327 566.5q-20 20.5 -20 49.5q0 31 20 50.5t51 19.5q30 0 49.5 -19.5t19.5 -50.5q0 -29 -20 -49.5t-49 -20.5q-31 0 -51 20.5z
M509 409q11 -49 11 -106q0 -132 -59.5 -223t-190.5 -91q-96 0 -156.5 54t-60.5 157v127q0 124 -12 162h149q8 -9 11.5 -31t3.5 -64v-184q0 -47 22 -72.5t55 -25.5q45 0 67 50.5t22 130.5q0 58 -10 114.5t-20 81.5h142q15 -31 26 -80z" />
    <glyph glyph-name="omicrontonos" unicode="&#x3cc;" horiz-adv-x="577" 
d="M336 548h-100l46 152h135zM425 468.5q57 -31.5 88 -88.5t31 -130q0 -86 -36 -144.5t-95 -87.5t-127 -29q-72 0 -129.5 30.5t-90.5 87.5t-33 134q0 78 32.5 136.5t91.5 90.5t137 32q74 0 131 -31.5zM214.5 349q-24.5 -43 -24.5 -104q0 -65 26.5 -106t73.5 -41
q44 0 70.5 40.5t26.5 106.5q0 61 -24.5 104t-72.5 43q-51 0 -75.5 -43z" />
    <glyph glyph-name="upsilontonos" unicode="&#x3cd;" horiz-adv-x="558" 
d="M321 549h-101l46 152h136zM509 409q11 -49 11 -106q0 -132 -59.5 -223t-190.5 -91q-96 0 -156.5 54t-60.5 157v127q0 124 -12 162h149q8 -9 11.5 -31t3.5 -64v-184q0 -47 22 -72.5t55 -25.5q45 0 67 50.5t22 130.5q0 58 -10 114.5t-20 81.5h142q15 -31 26 -80z" />
    <glyph glyph-name="omegatonos" unicode="&#x3ce;" horiz-adv-x="733" 
d="M414 548h-101l46 152h136zM447 138.5q13 -22.5 36 -22.5q30 0 49.5 39.5t19.5 111.5q0 63 -18 122.5t-51 97.5v2h138q31 -30 55 -91.5t24 -136.5q0 -85 -27 -146.5t-73.5 -93.5t-103.5 -32q-43 0 -78.5 20.5t-51.5 56.5h-5q-21 -35 -54.5 -56t-76.5 -21q-52 0 -97 29.5
t-72.5 88t-27.5 141.5q0 78 23.5 140.5t57.5 100.5h137v-2q-32 -42 -51.5 -102.5t-19.5 -126.5q0 -69 20.5 -105.5t48.5 -36.5q22 0 35 22.5t12 56.5l-2 177h143l-3 -176q0 -35 13 -57.5z" />
    <glyph glyph-name="uni0401" unicode="&#x401;" horiz-adv-x="534" 
d="M119 733q-20 20 -20 48q0 29 20.5 49t49.5 20q28 0 46.5 -20t18.5 -49q0 -28 -19 -48t-46 -20q-30 0 -50 20zM326.5 733q-19.5 20 -19.5 48q0 29 20 49t49 20q28 0 47.5 -20t19.5 -49q0 -28 -19.5 -48t-47.5 -20q-30 0 -49.5 20zM219 285v-160h277v-125h-430v674h416
v-125h-263v-140h248v-124h-248z" />
    <glyph glyph-name="uni0402" unicode="&#x402;" horiz-adv-x="722" 
d="M575 549h-233v-126h3q22 12 53.5 20t64.5 8q102 0 165 -80q59 -74 59 -199q0 -94 -37 -165t-106 -107q-56 -43 -124 -52l-23 125q60 15 88 48q19 21 30.5 56.5t11.5 84.5q0 84 -30 125q-31 41 -82 41q-42 0 -73 -24v-304h-153v549h-174v125h560v-125z" />
    <glyph glyph-name="uni0403" unicode="&#x403;" horiz-adv-x="489" 
d="M311 710h-122l85 123h160zM474 549h-255v-549h-153v674h408v-125z" />
    <glyph glyph-name="uni0404" unicode="&#x404;" horiz-adv-x="595" 
d="M476 554.5q-35 7.5 -74 7.5q-86 0 -138.5 -45.5t-65.5 -116.5h306v-119h-304q7 -75 64 -121t147 -46q31 0 66 6.5t61 16.5l23 -115q-26 -13 -72.5 -23t-100.5 -10q-109 0 -189 42t-122 120t-42 184q0 93 41 173t122.5 128.5t197.5 48.5q57 0 100.5 -10.5t70.5 -23.5
l-31 -116q-25 12 -60 19.5z" />
    <glyph glyph-name="uni0405" unicode="&#x405;" horiz-adv-x="540" 
d="M150.5 127q44.5 -12 89.5 -12q52 0 79.5 19.5t27.5 53.5q0 31 -25.5 52t-87.5 43q-185 64 -185 199q0 58 31 104t88.5 72.5t135.5 26.5q96 0 172 -34l-34 -123q-66 32 -141 32q-47 0 -72.5 -18.5t-25.5 -46.5q0 -30 27 -49t98 -46q90 -33 132.5 -81.5t42.5 -119.5
q0 -58 -30 -105.5t-91.5 -75.5t-150.5 -28q-55 0 -107.5 12t-83.5 29l31 126q35 -18 79.5 -30z" />
    <glyph glyph-name="uni0406" unicode="&#x406;" horiz-adv-x="285" 
d="M219 0h-153v674h153v-674z" />
    <glyph glyph-name="uni0407" unicode="&#x407;" horiz-adv-x="285" 
d="M-9.5 733q-19.5 20 -19.5 48q0 29 20 49t49 20q28 0 47 -20t19 -49q0 -28 -19 -48t-47 -20q-30 0 -49.5 20zM198.5 733q-19.5 20 -19.5 48q0 29 19.5 49t48.5 20q28 0 47.5 -20t19.5 -49q0 -28 -19 -48t-48 -20t-48.5 20zM219 0h-153v674h153v-674z" />
    <glyph glyph-name="uni0408" unicode="&#x408;" horiz-adv-x="411" 
d="M350 674v-426q0 -138 -61.5 -198.5t-178.5 -60.5q-27 0 -58 4.5t-53 11.5l17 123q36 -12 78 -12q52 0 78 29.5t26 104.5v424h152z" />
    <glyph glyph-name="uni0409" unicode="&#x409;" horiz-adv-x="945" 
d="M566 434q37 5 80 5q71 0 131 -23.5t96.5 -72.5t36.5 -120q0 -95 -65 -154q-85 -76 -268 -76q-94 0 -162 10v546h-142v-160q0 -144 -26.5 -234t-97.5 -132q-59 -33 -133 -33l-20 122q47 7 78 38q29 30 39.5 87t10.5 143v294h442v-240zM618 107q56 0 95 30t39 83t-37 79.5
t-95 26.5q-31 0 -54 -4v-212q27 -3 52 -3z" />
    <glyph glyph-name="uni040A" unicode="&#x40a;" horiz-adv-x="954" 
d="M219 423h205v251h151v-242q46 4 83 4q72 0 131.5 -23.5t94.5 -71.5t35 -118q0 -49 -17 -88t-48 -66q-87 -76 -267 -76q-95 0 -163 10v292h-205v-295h-153v674h153v-251zM628 107q58 0 95.5 29.5t37.5 82.5t-36.5 79t-93.5 26q-24 0 -56 -4v-209q24 -4 53 -4z" />
    <glyph glyph-name="uni040B" unicode="&#x40b;" horiz-adv-x="730" 
d="M566 549h-225v-136h4q26 17 64.5 28.5t77.5 11.5q85 0 132 -52q50 -54 50 -160v-241h-152v221q0 58 -24 85q-22 24 -63 24q-25 0 -48 -8t-41 -22v-300h-152v549h-174v125h551v-125z" />
    <glyph glyph-name="uni040C" unicode="&#x40c;" horiz-adv-x="605" 
d="M349 705h-122l84 123h160zM217 394h13l186 280h185l-235 -299q61 -15 96 -55.5t58 -107.5l12 -35q35 -113 66 -177h-164q-16 31 -27.5 69t-13.5 44l-11 35q-20 66 -49.5 100t-86.5 34h-29v-282h-151v674h151v-280z" />
    <glyph glyph-name="uni040E" unicode="&#x40e;" horiz-adv-x="588" 
d="M262 784q10 -15 33 -15q22 0 33 15t14 46h102q-9 -123 -151 -123q-134 0 -146 123h103q2 -31 12 -46zM273 437l47 -129h3q8 26 14 50q5 18 23 81l73 235h160l-126 -327q-38 -98 -68.5 -162.5t-64.5 -106.5q-71 -89 -179 -89q-45 0 -75 11l11 122q20 -5 50 -5
q33 0 57 18.5t34 44.5q3 6 3 12q0 7 -5 19l-227 463h172z" />
    <glyph glyph-name="uni040F" unicode="&#x40f;" horiz-adv-x="674" 
d="M219 125h237v549h152v-674h-200l-8 -184h-125l-8 184h-201v674h153v-549z" />
    <glyph glyph-name="uni0410" unicode="&#x410;" horiz-adv-x="656" 
d="M175 0h-158l206 674h200l209 -674h-164l-52 173h-193zM352 430q-10 34 -29 110l-5 20h-2l-12 -52q-13 -58 -19 -78l-40 -143h149z" />
    <glyph glyph-name="uni0411" unicode="&#x411;" horiz-adv-x="603" 
d="M514 550h-296v-116q38 5 82 5q53 0 103 -14t87 -41q78 -56 78 -161q0 -95 -64 -152q-46 -41 -118 -59.5t-156 -18.5q-96 0 -164 10v671h448v-124zM276 107q28 0 54.5 9t44.5 26q33 30 33 78t-36 76q-39 30 -101 30q-29 0 -54 -4v-211q23 -4 59 -4z" />
    <glyph glyph-name="uni0412" unicode="&#x412;" horiz-adv-x="604" 
d="M151.5 675q55.5 4 111.5 4q72 0 117.5 -8.5t81.5 -29.5q37 -20 59 -54t22 -78q0 -47 -28 -85.5t-83 -58.5v-2q60 -16 97 -59.5t37 -106.5q0 -86 -70 -143q-77 -61 -265 -61q-97 0 -165 10v662q30 6 85.5 10zM267 407q59 0 91 22.5t32 60.5t-28 58t-80 20q-39 0 -65 -4
v-157h50zM276 106q57 0 93.5 23.5t36.5 73.5q0 48 -38 71.5t-99 23.5h-52v-190q15 -2 59 -2z" />
    <glyph glyph-name="uni0413" unicode="&#x413;" horiz-adv-x="489" 
d="M474 549h-255v-549h-153v674h408v-125z" />
    <glyph glyph-name="uni0414" unicode="&#x414;" horiz-adv-x="688" 
d="M601 120l67 -4l-7 -287h-116l-8 171h-394l-8 -171h-116l-6 287l56 4q43 77 64 150q27 97 27 224v180h441v-554zM271 238q-19 -63 -47 -114h224v426h-147v-90q0 -120 -30 -222z" />
    <glyph glyph-name="uni0415" unicode="&#x415;" horiz-adv-x="534" 
d="M219 285v-160h277v-125h-430v674h416v-125h-263v-140h248v-124h-248z" />
    <glyph glyph-name="uni0416" unicode="&#x416;" horiz-adv-x="875" 
d="M350 394h14v280h146v-280h14l168 280h177l-230 -301q64 -7 102 -49.5t62 -114.5q4 -10 21 -70q27 -90 48 -139h-154q-18 39 -39 116l-9 33q-19 64 -49 98.5t-87 34.5h-24v-282h-146v282h-25q-56 0 -86 -34.5t-49 -98.5l-9 -33q-21 -77 -39 -116h-154q19 41 34.5 89.5
t18.5 58.5l18 57q23 72 60.5 114.5t101.5 53.5l-230 301h178z" />
    <glyph glyph-name="uni0417" unicode="&#x417;" horiz-adv-x="544" 
d="M251 685q72 0 125.5 -22.5t81.5 -61.5t28 -89q0 -61 -37 -102.5t-98 -56.5v-2q67 -9 112.5 -52t45.5 -108q0 -71 -41 -116t-104.5 -65.5t-132.5 -20.5q-55 0 -108 12t-94 35l32 117q27 -14 73.5 -27t89.5 -13q58 0 91 23t33 65q0 51 -41 70.5t-100 19.5h-64v112h63
q53 0 87 23t34 62q0 34 -27 54t-75 20q-36 0 -75.5 -11.5t-72.5 -28.5l-36 109q91 54 210 54z" />
    <glyph glyph-name="uni0418" unicode="&#x418;" horiz-adv-x="690" 
d="M206 474q0 -185 -8 -305h4q53 119 120 240l145 265h156v-674h-140v199q0 176 11 284h-3q-47 -121 -114 -240l-137 -243h-174v674h140v-200z" />
    <glyph glyph-name="uni0419" unicode="&#x419;" horiz-adv-x="690" 
d="M311 782q10 -15 33 -15q22 0 33 15t14 46h102q-9 -123 -151 -123q-134 0 -146 123h104q1 -31 11 -46zM206 474q0 -185 -8 -305h4q53 119 120 240l145 265h156v-674h-140v199q0 176 11 284h-3q-47 -121 -114 -240l-137 -243h-174v674h140v-200z" />
    <glyph glyph-name="uni041A" unicode="&#x41a;" horiz-adv-x="605" 
d="M217 394h13l186 280h185l-235 -299q61 -15 96 -55.5t58 -107.5l12 -35q35 -113 66 -177h-164q-16 31 -27.5 69t-13.5 44l-11 35q-20 66 -49.5 100t-86.5 34h-29v-282h-151v674h151v-280z" />
    <glyph glyph-name="uni041B" unicode="&#x41b;" horiz-adv-x="645" 
d="M578 0h-152v549h-153v-160q0 -144 -26.5 -234t-97.5 -132q-59 -33 -134 -33l-19 123q49 6 77 36q29 29 40 87t11 143v295h454v-674z" />
    <glyph glyph-name="uni041C" unicode="&#x41c;" horiz-adv-x="846" 
d="M630 535h-3q-31 -128 -75 -261l-82 -263h-119l-72 261q-38 136 -61 263h-2l-4 -99q-3 -84 -8 -180l-12 -256h-141l43 674h203l66 -225q38 -142 57 -241h3q34 140 64 242l72 224h199l37 -674h-149l-10 258q-6 162 -6 277z" />
    <glyph glyph-name="uni041D" unicode="&#x41d;" horiz-adv-x="689" 
d="M219 415h251v259h152v-674h-152v282h-251v-282h-153v674h153v-259z" />
    <glyph glyph-name="uni041E" unicode="&#x41e;" horiz-adv-x="717" 
d="M535.5 639.5q72.5 -45.5 110 -123t37.5 -172.5q0 -109 -41.5 -189t-116.5 -123t-173 -43q-97 0 -169 45t-110 123t-38 175q0 101 40.5 181t115 126t172.5 46q100 0 172.5 -45.5zM239.5 500q-43.5 -64 -43.5 -165q0 -100 44.5 -162.5t119.5 -62.5t118.5 64t43.5 165
q0 62 -19 113t-56 81.5t-88 30.5q-76 0 -119.5 -64z" />
    <glyph glyph-name="uni041F" unicode="&#x41f;" horiz-adv-x="677" 
d="M611 0h-153v549h-239v-549h-153v674h545v-674z" />
    <glyph glyph-name="uni0420" unicode="&#x420;" horiz-adv-x="581" 
d="M272 679q139 0 206 -54q33 -26 52.5 -67t19.5 -89q0 -49 -16 -90t-46 -70q-75 -71 -219 -71q-31 0 -52 3v-241h-151v665q82 14 206 14zM268 355q61 0 96 29t35 81q0 47 -31 73t-88 26q-41 0 -63 -6v-199q17 -4 51 -4z" />
    <glyph glyph-name="uni0421" unicode="&#x421;" horiz-adv-x="595" 
d="M491 -1.5q-46 -8.5 -103 -8.5q-113 0 -192.5 43.5t-120 119.5t-40.5 174q0 112 48.5 193t132.5 123t187 42q55 0 99 -9t67 -21l-31 -121q-60 25 -128 25q-95 0 -155 -57.5t-60 -165.5q0 -102 57.5 -161t158.5 -59q33 0 68.5 6.5t58.5 15.5l23 -119q-24 -12 -70 -20.5z
" />
    <glyph glyph-name="uni0422" unicode="&#x422;" horiz-adv-x="548" 
d="M15 546v128h518v-128h-184v-546h-153v546h-181z" />
    <glyph glyph-name="uni0423" unicode="&#x423;" horiz-adv-x="588" 
d="M273 437l47 -129h3q8 26 14 50q5 18 23 81l73 235h160l-126 -327q-38 -98 -68.5 -162.5t-64.5 -106.5q-71 -89 -179 -89q-45 0 -75 11l11 122q20 -5 50 -5q33 0 57 18.5t34 44.5q3 6 3 12q0 7 -5 19l-227 463h172z" />
    <glyph glyph-name="uni0424" unicode="&#x424;" horiz-adv-x="789" 
d="M467 643q77 -5 141.5 -38.5t105 -99.5t40.5 -166q0 -145 -82 -219.5t-207 -86.5v-61h-143v61q-78 6 -143 39t-104.5 98.5t-39.5 163.5q0 100 43 167.5t109 101.5t137 40v59h143v-59zM229 483q-41 -49 -41 -146q0 -62 20 -105t51 -66t64 -27v400q-53 -7 -94 -56z
M560.5 193.5q40.5 48.5 40.5 145.5t-39.5 145t-95.5 55v-400q54 6 94.5 54.5z" />
    <glyph glyph-name="uni0425" unicode="&#x425;" horiz-adv-x="613" 
d="M360 122q-13 24 -26 51t-20 41l-14 29h-2q-15 -41 -38 -90l-14 -31l-56 -122h-174l195 341l-188 333h175l59 -123q28 -58 51 -112h2q16 44 46 112l57 123h174l-190 -329l200 -345h-176z" />
    <glyph glyph-name="uni0426" unicode="&#x426;" horiz-adv-x="694" 
d="M219 125h236v549h152v-554l68 -4l-7 -287h-116l-8 171h-478v674h153v-549z" />
    <glyph glyph-name="uni0427" unicode="&#x427;" horiz-adv-x="642" 
d="M212 479q0 -57 29 -85.5t84 -28.5q51 0 99 25v284h152v-674h-152v278h-3q-37 -18 -73 -26.5t-78 -8.5q-96 0 -153 52.5t-57 157.5v221h152v-195z" />
    <glyph glyph-name="uni0428" unicode="&#x428;" horiz-adv-x="913" 
d="M216 125h166v549h149v-549h167v549h149v-674h-781v674h150v-549z" />
    <glyph glyph-name="uni0429" unicode="&#x429;" horiz-adv-x="934" 
d="M216 125h166v549h149v-549h167v549h149v-554l67 -4l-7 -287h-116l-8 171h-717v674h150v-549z" />
    <glyph glyph-name="uni042A" unicode="&#x42a;" horiz-adv-x="706" 
d="M334 440q47 5 81 5q68 0 126.5 -25t94 -74.5t35.5 -119.5q0 -92 -55 -147q-83 -86 -269 -86q-97 0 -165 10v547h-170v124h322v-234zM388 107q54 0 88.5 30t34.5 83t-35 80.5t-88 27.5q-23 0 -55 -4v-213q20 -4 55 -4z" />
    <glyph glyph-name="uni042B" unicode="&#x42b;" horiz-adv-x="852" 
d="M218 439q38 6 75 6q72 0 133 -24.5t97.5 -74t36.5 -122.5q0 -88 -54 -145q-45 -46 -119 -66t-158 -20q-95 0 -163 10v671h152v-235zM774 0h-152v674h152v-674zM269 107q54 0 92.5 30t38.5 83t-39.5 80.5t-89.5 27.5q-24 0 -54 -4v-213q17 -4 52 -4z" />
    <glyph glyph-name="uni042C" unicode="&#x42c;" horiz-adv-x="603" 
d="M218 440q53 5 82 5q75 0 135.5 -24t96.5 -73.5t36 -121.5q0 -90 -54 -147q-45 -46 -120 -66t-163 -20q-97 0 -165 10v671h152v-234zM274 107q59 0 96.5 28.5t37.5 83.5t-36.5 82t-95.5 27q-21 0 -59 -4v-213q23 -4 57 -4z" />
    <glyph glyph-name="uni042D" unicode="&#x42d;" horiz-adv-x="587" 
d="M388 401q-8 71 -56.5 116t-129.5 45q-69 0 -137 -28l-30 113q36 16 83 27t96 11q114 0 190 -47t112 -126t36 -176q0 -110 -46 -188.5t-125.5 -118.5t-180.5 -40q-49 0 -96.5 9.5t-76.5 22.5l26 117q27 -11 63.5 -17.5t71.5 -6.5q84 0 137 46.5t62 121.5h-288v119h289z
" />
    <glyph glyph-name="uni042E" unicode="&#x42e;" horiz-adv-x="921" 
d="M218 411h81q14 81 53.5 143t101.5 96.5t140 34.5q92 0 158.5 -45.5t101 -123t34.5 -172.5q0 -109 -38 -189.5t-107 -123t-159 -42.5q-82 0 -144.5 37.5t-99.5 104t-45 152.5h-77v-283h-152v674h152v-263zM695.5 173.5q38.5 64.5 38.5 165.5q0 96 -38 161t-106 65
q-69 0 -107.5 -65.5t-38.5 -163.5t39 -162.5t106 -64.5q68 0 106.5 64.5z" />
    <glyph glyph-name="uni042F" unicode="&#x42f;" horiz-adv-x="600" 
d="M42 76q6 16 16 48q18 58 34.5 94.5t43.5 62.5q19 19 56 35v3q-61 11 -101.5 53t-40.5 111q0 46 18.5 82t51.5 61q69 53 220 53q108 0 194 -14v-665h-151v265h-37q-44 0 -72 -26q-22 -20 -35.5 -51.5t-30.5 -86.5q-13 -41 -14 -44t-7 -20.5t-17 -36.5h-162q19 30 34 76z
M321 566q-53 0 -86 -24t-33 -73q0 -45 36 -70t90 -25q34 0 55 3v183q-33 6 -62 6z" />
    <glyph glyph-name="uni0430" unicode="&#x430;" horiz-adv-x="528" 
d="M330 49h-3q-24 -29 -60 -44.5t-80 -15.5q-48 0 -84 21t-55 55t-19 74q0 93 76.5 140.5t210.5 46.5v7q0 25 -19.5 44t-69.5 19q-36 0 -73 -10.5t-62 -26.5l-28 98q31 17 80.5 30t109.5 13q114 0 164.5 -58t50.5 -153v-170q0 -81 7 -119h-137zM217.5 214
q-38.5 -18 -38.5 -60q0 -28 16.5 -43t43.5 -15q28 0 49.5 16t29.5 40q3 12 3 26v53q-65 1 -103.5 -17z" />
    <glyph glyph-name="uni0431" unicode="&#x431;" horiz-adv-x="577" 
d="M368 583q-54 -6 -92 -21.5t-62 -43.5q-21 -22 -35.5 -56t-17.5 -65h5q23 42 65.5 67t95.5 25q65 0 114.5 -30t76 -85.5t26.5 -127.5q0 -78 -32 -136t-89.5 -89.5t-129.5 -31.5q-124 0 -190 89t-66 234q0 198 105 297q71 75 204 90q113 12 146 21l-8 -120
q-38 -11 -116 -17zM364 341q-24 43 -75 43q-45 0 -71 -40q-26 -38 -26 -97q0 -57 25 -103t74 -46q50 0 73.5 41.5t23.5 100.5q0 58 -24 101z" />
    <glyph glyph-name="uni0432" unicode="&#x432;" horiz-adv-x="552" 
d="M149 492q56 4 108 4q242 0 242 -125q0 -44 -29 -71t-71 -35v-2q56 -9 88.5 -40t32.5 -79q0 -151 -289 -151q-47 0 -96 3t-75 6v482q33 4 89 8zM249 298q47 0 73.5 13t26.5 40q0 52 -87 52q-18 0 -52 -4v-101h39zM260 85q45 0 74.5 15t29.5 48q0 62 -111 62h-44v-123
q16 -2 51 -2z" />
    <glyph glyph-name="uni0433" unicode="&#x433;" horiz-adv-x="416" 
d="M402 371h-190v-371h-152v489h342v-118z" />
    <glyph glyph-name="uni0434" unicode="&#x434;" horiz-adv-x="590" 
d="M516 107l54 -2l-7 -263h-114l-5 158h-309l-6 -158h-115l-4 262l45 3q32 48 49 102q22 80 22 160v120h390v-382zM240 194q-11 -45 -34 -83h162v267h-110v-57q0 -58 -18 -127z" />
    <glyph glyph-name="uni0435" unicode="&#x435;" horiz-adv-x="528" 
d="M220.5 127q38.5 -24 95.5 -24q72 0 135 20l20 -103q-75 -30 -177 -30q-123 0 -192 66.5t-69 182.5q0 65 27.5 125t83 98t136.5 38q75 0 124 -34.5t71.5 -89.5t22.5 -120q0 -32 -5 -60h-315q4 -45 42.5 -69zM337.5 368q-19.5 31 -66.5 31q-43 0 -66.5 -30.5t-27.5 -68.5
h180q0 37 -19.5 68z" />
    <glyph glyph-name="uni0436" unicode="&#x436;" horiz-adv-x="737" 
d="M279 293h16v196h147v-196h15l111 196h168l-170 -211q39 -7 68 -41t46 -83q8 -21 16 -47q5 -13 17.5 -47.5t24.5 -59.5h-152q-9 16 -20 46.5t-22 65.5q-14 41 -37 62t-53 21h-12v-195h-147v195h-12q-32 0 -54.5 -20.5t-37.5 -62.5q-10 -29 -11 -30q-20 -60 -32 -82h-150
q20 39 46 115q4 11 7.5 20.5t6.5 17.5q18 51 46 84.5t67 40.5l-170 211h168z" />
    <glyph glyph-name="uni0437" unicode="&#x437;" horiz-adv-x="487" 
d="M182 298q45 0 68.5 13.5t23.5 35.5q0 21 -22 34.5t-61 13.5q-31 0 -63 -9.5t-60 -25.5l-30 89q42 25 93.5 37.5t105.5 12.5q79 0 138.5 -31.5t59.5 -99.5q0 -44 -31.5 -71t-74.5 -37v-4q52 -6 89.5 -35t37.5 -80q0 -80 -74.5 -115t-168.5 -35q-52 0 -102 12t-88 35l32 94
q26 -14 64.5 -23.5t75.5 -10.5q46 0 70 14.5t24 37.5q0 55 -106 55h-73v93h72z" />
    <glyph glyph-name="uni0438" unicode="&#x438;" horiz-adv-x="597" 
d="M204 339q0 -77 -7 -177l-1 -22l4 -1l26 65q17 45 30 75l95 210h186v-489h-144v149q0 51 5 129l4 83h-4q-27 -77 -51 -132q-19 -41 -61 -137l-41 -92h-185v489h144v-150z" />
    <glyph glyph-name="uni0439" unicode="&#x439;" horiz-adv-x="597" 
d="M264 639q12 -19 33 -19q22 0 34.5 19t14.5 52h96q-4 -69 -43 -105t-104 -36q-67 0 -102 37t-39 104h97q1 -33 13 -52zM204 339q0 -77 -7 -177l-1 -22l4 -1l26 65q17 45 30 75l95 210h186v-489h-144v149q0 51 5 129l4 83h-4q-27 -77 -51 -132q-19 -41 -61 -137l-41 -92
h-185v489h144v-150z" />
    <glyph glyph-name="uni043A" unicode="&#x43a;" horiz-adv-x="530" 
d="M212 294h17l123 195h178l-180 -210q41 -8 70 -42.5t53 -92.5l12 -33q4 -11 18.5 -47t28.5 -64h-159q-8 13 -17.5 37t-16.5 43t-10 28q-17 43 -41.5 64.5t-60.5 21.5h-15v-194h-151v489h151v-195z" />
    <glyph glyph-name="uni043B" unicode="&#x43b;" horiz-adv-x="546" 
d="M486 0h-152v373h-106v-90q0 -96 -15 -155.5t-54 -90.5q-23 -25 -57 -36t-85 -11l-16 117q38 7 54 27q20 20 26 54.5t6 102.5v198h399v-489z" />
    <glyph glyph-name="uni043C" unicode="&#x43c;" horiz-adv-x="718" 
d="M272 489l53 -185q23 -83 32 -123h3l33 115l6 19l54 174h192l30 -489h-141l-8 196q0 15 -2 61l-3 110h-3q-4 -12 -15 -54l-32 -106l-65 -199h-111l-58 194q-15 52 -34 137l-6 25h-4l-2 -77l-3 -94l-8 -193h-136l34 489h194z" />
    <glyph glyph-name="uni043D" unicode="&#x43d;" horiz-adv-x="579" 
d="M212 312h154v177h153v-489h-153v194h-154v-194h-152v489h152v-177z" />
    <glyph glyph-name="uni043E" unicode="&#x43e;" horiz-adv-x="577" 
d="M425 468.5q57 -31.5 88 -88.5t31 -130q0 -86 -36 -144.5t-95 -87.5t-127 -29q-72 0 -129.5 30.5t-90.5 87.5t-33 134q0 78 32.5 136.5t91.5 90.5t137 32q74 0 131 -31.5zM214.5 349q-24.5 -43 -24.5 -104q0 -65 26.5 -106t73.5 -41q44 0 70.5 40.5t26.5 106.5
q0 61 -24.5 104t-72.5 43q-51 0 -75.5 -43z" />
    <glyph glyph-name="uni043F" unicode="&#x43f;" horiz-adv-x="576" 
d="M515 0h-153v373h-150v-373h-152v489h455v-489z" />
    <glyph glyph-name="uni0440" unicode="&#x440;" horiz-adv-x="598" 
d="M57 489h132l7 -68h2q55 79 163 79q54 0 100.5 -30t74.5 -87t28 -132q0 -85 -31.5 -144t-82.5 -88.5t-108 -29.5q-43 0 -76.5 15.5t-50.5 40.5h-2v-243h-152v523q0 74 -4 164zM216 178q8 -31 32.5 -51.5t56.5 -20.5q49 0 77 37.5t28 100.5q0 61 -27 99t-76 38
q-32 0 -58 -21.5t-33 -55.5q-3 -12 -3 -27v-67q0 -18 3 -32z" />
    <glyph glyph-name="uni0441" unicode="&#x441;" horiz-adv-x="451" 
d="M370.5 -4q-36.5 -6 -78.5 -6q-78 0 -137 30.5t-90.5 87t-31.5 132.5q0 73 32.5 132t96 93.5t151.5 34.5q65 0 116 -19l-24 -113q-34 15 -85 15q-60 0 -96 -38.5t-35 -98.5q0 -65 38 -101t96 -36q49 0 87 15l18 -112q-21 -10 -57.5 -16z" />
    <glyph glyph-name="uni0442" unicode="&#x442;" horiz-adv-x="461" 
d="M449 373h-142v-373h-153v373h-142v116h437v-116z" />
    <glyph glyph-name="uni0443" unicode="&#x443;" horiz-adv-x="523" 
d="M248 249q18 -67 24 -91h3q9 33 13 53l9 38l60 240h163l-114 -322q-50 -140 -89.5 -211t-82.5 -110q-65 -56 -147 -67l-32 129q31 5 66 26q17 9 34.5 25.5t28.5 35.5q8 11 8 22t-7 25l-179 447h169z" />
    <glyph glyph-name="uni0444" unicode="&#x444;" horiz-adv-x="720" 
d="M429 497q72 -7 130.5 -38t93 -85.5t34.5 -130.5t-35 -131t-93.5 -85t-129.5 -35v-190h-138v189q-71 6 -129.5 36t-93.5 84.5t-35 129.5q0 114 73 179.5t185 76.5v213h138v-213zM210 345q-27 -41 -27 -100q0 -61 27 -101.5t81 -52.5v308q-54 -13 -81 -54zM509.5 144
q27.5 41 27.5 101q0 59 -27.5 99.5t-80.5 53.5v-307q53 12 80.5 53z" />
    <glyph glyph-name="uni0445" unicode="&#x445;" horiz-adv-x="519" 
d="M225 408l40 -73h2l10 20q15 31 28 55l43 79h165l-161 -233l163 -256h-172l-49 88q-14 24 -38 74h-3l-25 -50l-12 -24l-46 -88h-167l166 249l-162 240h170z" />
    <glyph glyph-name="uni0446" unicode="&#x446;" horiz-adv-x="589" 
d="M212 116h152v373h152v-382l54 -2l-7 -263h-114l-5 158h-384v489h152v-373z" />
    <glyph glyph-name="uni0447" unicode="&#x447;" horiz-adv-x="558" 
d="M207 341q0 -41 17.5 -61.5t55.5 -20.5q18 0 36.5 6t29.5 15v209h152v-489h-152v182h-2q-23 -14 -56 -22.5t-67 -8.5q-80 0 -123 45t-43 131v162h152v-148z" />
    <glyph glyph-name="uni0448" unicode="&#x448;" horiz-adv-x="813" 
d="M211 116h120v373h151v-373h120v373h151v-489h-693v489h151v-373z" />
    <glyph glyph-name="uni0449" unicode="&#x449;" horiz-adv-x="826" 
d="M211 116h120v373h151v-373h120v373h151v-382l54 -2l-7 -263h-114l-5 158h-621v489h151v-373z" />
    <glyph glyph-name="uni044A" unicode="&#x44a;" horiz-adv-x="650" 
d="M310 345q35 5 80 5q95 0 162 -42t67 -133q0 -80 -67 -127q-43 -29 -104.5 -41.5t-126.5 -12.5q-87 0 -164 9v371h-138v115h291v-144zM360 97q45 0 76.5 17.5t31.5 55.5q0 43 -33.5 60t-79.5 17q-14 0 -27.5 -2t-18.5 -3v-142q39 -3 51 -3z" />
    <glyph glyph-name="uni044B" unicode="&#x44b;" horiz-adv-x="777" 
d="M212 344q40 6 79 6q91 0 155.5 -42t64.5 -129q0 -85 -67 -130q-79 -55 -221 -55q-86 0 -163 9v486h152v-145zM717 0h-152v489h152v-489zM257 97q43 0 73 18.5t30 58.5q0 38 -28.5 55.5t-67.5 17.5q-18 0 -53 -5v-143q28 -2 46 -2z" />
    <glyph glyph-name="uni044C" unicode="&#x44c;" horiz-adv-x="554" 
d="M212 344q42 6 77 6q99 0 166.5 -40t67.5 -130q0 -86 -67 -131q-43 -30 -105 -42.5t-128 -12.5q-86 0 -163 9v486h152v-145zM231 98.5q14 -1.5 31 -1.5q45 0 77.5 18t32.5 58t-34 57t-78 17q-15 0 -29.5 -2t-19.5 -3v-142q6 0 20 -1.5z" />
    <glyph glyph-name="uni044D" unicode="&#x44d;" horiz-adv-x="485" 
d="M297 294q-8 44 -41 69.5t-90 25.5t-109 -22l-28 97q33 17 77 26.5t87 9.5q52 0 98.5 -14.5t79.5 -44.5q81 -73 81 -195q0 -77 -34 -135t-97.5 -90t-148.5 -32q-41 0 -80 8.5t-70 24.5l23 103q19 -8 48.5 -14t63.5 -6q54 0 90.5 24.5t46.5 68.5h-211v96h214z" />
    <glyph glyph-name="uni044E" unicode="&#x44e;" horiz-adv-x="771" 
d="M211 307h64q17 89 78.5 141t152.5 52q68 0 121 -31.5t82 -88.5t29 -130q0 -83 -33 -142t-87.5 -89t-118.5 -30q-90 0 -152.5 55.5t-74.5 151.5h-61v-196h-151v489h151v-182zM564.5 138.5q21.5 41.5 21.5 107.5q0 61 -21 103.5t-63 42.5q-43 0 -65 -43t-22 -105
q0 -64 22 -105.5t64 -41.5t63.5 41.5z" />
    <glyph glyph-name="uni044F" unicode="&#x44f;" horiz-adv-x="553" 
d="M343 0v184h-31q-44 0 -70 -35q-13 -13 -22.5 -32.5t-21.5 -51.5l-9 -25q-6 -14 -19 -40h-162q13 16 30 54q4 9 16 39t25.5 55.5t27.5 40.5q26 28 62 36v3q-48 5 -87 36t-39 85q0 43 21.5 71.5t61.5 47.5q59 29 180 29q108 0 187 -11v-486h-150zM291 403q-40 0 -65.5 -16
t-25.5 -47q0 -30 28 -47t65 -17l50 1v122q-26 4 -52 4z" />
    <glyph glyph-name="uni0451" unicode="&#x451;" horiz-adv-x="528" 
d="M125 577.5q-21 20.5 -21 49.5q0 30 21 50.5t51 20.5q29 0 48.5 -20t19.5 -51q0 -29 -19.5 -49.5t-48.5 -20.5q-30 0 -51 20.5zM335.5 577.5q-20.5 20.5 -20.5 49.5q0 31 20.5 51t50.5 20q29 0 49 -20t20 -51q0 -29 -19.5 -49.5t-49.5 -20.5t-50.5 20.5zM220.5 127
q38.5 -24 95.5 -24q72 0 135 20l20 -103q-75 -30 -177 -30q-123 0 -192 66.5t-69 182.5q0 65 27.5 125t83 98t136.5 38q75 0 124 -34.5t71.5 -89.5t22.5 -120q0 -32 -5 -60h-315q4 -45 42.5 -69zM337.5 368q-19.5 31 -66.5 31q-43 0 -66.5 -30.5t-27.5 -68.5h180
q0 37 -19.5 68z" />
    <glyph glyph-name="uni0452" unicode="&#x452;" horiz-adv-x="586" 
d="M74 710h152v-68h211v-100h-211v-108h2q24 24 57 38.5t71 14.5q48 0 85 -23.5t62 -65.5q47 -74 47 -198q0 -111 -32.5 -190t-93.5 -117q-29 -18 -60 -29t-56 -13l-28 121q21 4 38 12t33 25q21 23 33.5 71.5t12.5 107.5q0 85 -25 132q-11 20 -28 32t-38 12q-20 0 -38 -9.5
t-30 -23.5q-12 -16 -12 -40v-291h-152v542h-73v100h73v68z" />
    <glyph glyph-name="uni0453" unicode="&#x453;" horiz-adv-x="416" 
d="M258 550h-104l85 152h141zM402 371h-190v-371h-152v489h342v-118z" />
    <glyph glyph-name="uni0454" unicode="&#x454;" horiz-adv-x="472" 
d="M324 390q-55 0 -90 -26t-43 -70h203v-96h-200q9 -46 45 -70.5t91 -24.5q50 0 99 19l22 -105q-23 -12 -62.5 -20t-84.5 -8q-83 0 -144 31t-94 87.5t-33 132.5q0 82 38 140.5t103.5 89t146.5 30.5q37 0 72.5 -7.5t56.5 -18.5l-27 -105q-44 21 -99 21z" />
    <glyph glyph-name="uni0455" unicode="&#x455;" horiz-adv-x="434" 
d="M121 107.5q38 -11.5 70 -11.5q65 0 65 41q0 19 -14.5 30.5t-57.5 25.5q-72 24 -105.5 62t-33.5 83q0 46 24.5 83t69.5 58t105 21q41 0 77.5 -8t60.5 -20l-27 -105q-20 11 -48.5 19.5t-57.5 8.5q-28 0 -43 -10.5t-15 -29.5q0 -17 16.5 -28.5t62.5 -27.5q69 -24 100.5 -60
t32.5 -91q0 -71 -55 -114.5t-157 -43.5q-47 0 -88 9t-70 25l27 109q23 -14 61 -25.5z" />
    <glyph glyph-name="uni0456" unicode="&#x456;" horiz-adv-x="274" 
d="M195 680.5q22 -21.5 23 -55.5q0 -32 -22.5 -54t-59.5 -22q-35 0 -57.5 22t-21.5 54q-1 33 21.5 55t58.5 22t58 -21.5zM61 489h152v-489h-152v489z" />
    <glyph glyph-name="uni0457" unicode="&#x457;" horiz-adv-x="274" 
d="M-18 577.5q-21 20.5 -21 49.5q0 30 21 50.5t51 20.5q29 0 48.5 -20t19.5 -51q0 -29 -19.5 -49.5t-48.5 -20.5q-30 0 -51 20.5zM192.5 577.5q-20.5 20.5 -20.5 49.5q0 31 20.5 51t50.5 20q29 0 49 -20t20 -51q0 -29 -19.5 -49.5t-49.5 -20.5t-50.5 20.5zM61 489h152v-489
h-152v489z" />
    <glyph glyph-name="uni0458" unicode="&#x458;" horiz-adv-x="291" 
d="M214.5 680.5q21.5 -21.5 22.5 -55.5q0 -32 -22.5 -54t-59.5 -22q-35 0 -57 22t-22 54q0 34 22 55.5t59 21.5q36 0 57.5 -21.5zM50 -58q17 17 23.5 52t6.5 107v388h153v-424q0 -79 -17 -130.5t-52 -83.5q-32 -30 -81.5 -45t-107.5 -15l-15 119q64 5 90 32z" />
    <glyph glyph-name="uni0459" unicode="&#x459;" horiz-adv-x="824" 
d="M486 341q42 6 76 6q96 0 163.5 -42.5t67.5 -131.5q0 -79 -61 -123q-74 -56 -232 -56q-89 0 -166 9v370h-105v-89q0 -95 -15.5 -154.5t-54.5 -91.5q-23 -25 -57 -36.5t-85 -11.5l-16 118q35 6 54 25q21 19 27.5 56t6.5 102v198h397v-148zM535 97q43 0 75 17t32 57
q0 39 -30.5 56.5t-71.5 17.5q-23 0 -55 -4v-142q28 -2 50 -2z" />
    <glyph glyph-name="uni045A" unicode="&#x45a;" horiz-adv-x="840" 
d="M212 324h138v165h153v-149q40 6 77 6q94 0 161 -43t67 -131q0 -76 -61 -123q-75 -55 -231 -55q-89 0 -166 9v209h-138v-212h-152v489h152v-165zM552 97q43 0 74 17.5t31 55.5q0 40 -30.5 57t-73.5 17q-21 0 -51 -4v-140q39 -3 50 -3z" />
    <glyph glyph-name="uni045B" unicode="&#x45b;" horiz-adv-x="586" 
d="M373 269q0 51 -19 79.5t-60 28.5q-28 0 -47.5 -15t-28.5 -38q-5 -12 -5 -34v-290h-152v540h-79v83h79v87h152v-87h183v-83h-183v-109h2q25 32 60 50q36 19 79 19q77 0 124 -54t47 -160v-286h-152v269z" />
    <glyph glyph-name="uni045C" unicode="&#x45c;" horiz-adv-x="530" 
d="M294 550h-104l86 152h140zM212 294h17l123 195h178l-180 -210q41 -8 70 -42.5t53 -92.5l12 -33q4 -11 18.5 -47t28.5 -64h-159q-8 13 -17.5 37t-16.5 43t-10 28q-17 43 -41.5 64.5t-60.5 21.5h-15v-194h-151v489h151v-195z" />
    <glyph glyph-name="uni045E" unicode="&#x45e;" horiz-adv-x="523" 
d="M227 639q12 -19 33 -19q22 0 34.5 19t14.5 52h96q-4 -69 -43 -105t-104 -36q-67 0 -102 37t-38 104h96q1 -33 13 -52zM248 249q18 -67 24 -91h3q9 33 13 53l9 38l60 240h163l-114 -322q-50 -140 -89.5 -211t-82.5 -110q-65 -56 -147 -67l-32 129q31 5 66 26
q17 9 34.5 25.5t28.5 35.5q8 11 8 22t-7 25l-179 447h169z" />
    <glyph glyph-name="uni045F" unicode="&#x45f;" horiz-adv-x="576" 
d="M213 116h150v373h153v-489h-159l-9 -165h-121l-9 165h-158v489h153v-373z" />
    <glyph glyph-name="uni0490" unicode="&#x490;" horiz-adv-x="492" 
d="M376 804h109l-12 -255h-254v-549h-153v674h294z" />
    <glyph glyph-name="uni0491" unicode="&#x491;" horiz-adv-x="431" 
d="M308 608h106l-9 -237h-193v-371h-152v489h234z" />
    <glyph glyph-name="uni04D9" unicode="&#x4d9;" horiz-adv-x="528" 
d="M236 500q121 0 189.5 -67t68.5 -182q0 -65 -27 -125t-82 -98t-135 -38q-76 0 -126 34.5t-72.5 89.5t-22.5 120q0 37 6 59h314q-3 47 -38.5 70.5t-95.5 23.5q-71 0 -139 -23l-20 102q80 34 180 34zM191 122.5q21 -31.5 67 -31.5q44 0 66 30t26 68h-180q0 -35 21 -66.5z
" />
    <glyph glyph-name="uni10D0" unicode="&#x10d0;" horiz-adv-x="596" 
d="M167 18q-58 28 -92 81t-34 124q0 46 8 78t24 62l147 -32q-21 -53 -21 -108t28.5 -86t69.5 -31t69 29.5t28 85.5q0 57 -22 98.5t-66 95.5q-32 40 -51 68.5t-32 67t-13 85.5q0 12 2 38h156v-15q0 -47 19 -83t59 -88q34 -43 55 -76t36 -80t15 -107q0 -72 -34 -125.5
t-92.5 -81.5t-129.5 -28t-129 28z" />
    <glyph glyph-name="uni10D1" unicode="&#x10d1;" horiz-adv-x="580" 
d="M501.5 359q43.5 -58 43.5 -139q0 -74 -36 -126t-94.5 -78t-125.5 -26q-71 0 -128.5 27.5t-91.5 80t-34 123.5q0 88 51.5 148.5t139.5 77.5v62l-58 23q-32 13 -50.5 42t-18.5 65v35h156v-21q0 -27 31 -40l96 -38v-135q76 -23 119.5 -81zM359.5 133.5q26.5 32.5 26.5 87.5
q0 51 -24 86t-72 35t-72.5 -35t-24.5 -86q0 -54 26.5 -87t69.5 -33q44 0 70.5 32.5z" />
    <glyph glyph-name="uni10D2" unicode="&#x10d2;" horiz-adv-x="572" 
d="M158 16q-58 26 -92.5 77t-34.5 122q0 87 62 148.5t164 75.5q44 6 60 27t16 52q0 27 -15.5 42t-39.5 15t-38 -14t-14 -34q0 -12 4 -26l-152 -31q-10 25 -10 56q0 74 60 117t152 43q61 0 108.5 -20.5t74 -57.5t26.5 -86q0 -41 -17 -71.5t-59 -48.5v-1q64 -25 96 -75
t32 -112q0 -74 -37 -124.5t-95.5 -75t-123.5 -24.5q-69 0 -127 26zM354.5 131.5q27.5 29.5 27.5 82.5q0 50 -25.5 82.5t-70.5 32.5q-46 0 -71.5 -32.5t-25.5 -82.5q0 -53 27.5 -82.5t68.5 -29.5q42 0 69.5 29.5z" />
    <glyph glyph-name="uni10D3" unicode="&#x10d3;" horiz-adv-x="853" 
d="M473.5 61q-43.5 20 -110.5 20h-137q-62 0 -102 -12v107l73 6v3q-76 41 -120 102t-44 167q0 64 28.5 117t78 84t109.5 31q55 0 94.5 -19t61.5 -55h2q23 35 70.5 54.5t103.5 19.5q70 0 124.5 -27.5t85.5 -78.5t31 -120q0 -66 -33 -116t-90 -77.5t-127 -27.5
q-66 0 -123.5 25t-92.5 73.5t-35 116.5q0 10 2 28t2 28q0 28 -15 45.5t-42 17.5q-35 0 -56.5 -32.5t-21.5 -96.5q0 -95 59 -162.5t175 -85.5q122 -19 186.5 -63t64.5 -133h-151q-7 41 -50.5 61zM640.5 383.5q22.5 33.5 22.5 80.5q0 44 -22.5 77.5t-69.5 33.5
q-46 0 -68.5 -33t-22.5 -78q0 -47 22.5 -80.5t69.5 -33.5q46 0 68.5 33.5z" />
    <glyph glyph-name="uni10D4" unicode="&#x10d4;" horiz-adv-x="587" 
d="M156.5 18.5q-56.5 26.5 -89 74t-32.5 107.5q0 49 25 95l145 -22q-12 -31 -12 -65q0 -45 22.5 -74.5t66.5 -29.5q91 0 91 110v269q0 45 -24 67t-60 22q-35 0 -56.5 -22.5t-21.5 -60.5q0 -23 5 -42l-152 -24q-13 35 -13 73q0 56 31.5 98.5t85.5 65.5t120 23q67 0 122.5 -26
t87.5 -72t32 -103v-258q0 -68 -30 -120.5t-86.5 -82t-131.5 -29.5q-69 0 -125.5 26.5z" />
    <glyph glyph-name="uni10D5" unicode="&#x10d5;" horiz-adv-x="573" 
d="M155.5 17.5q-57.5 25.5 -90.5 70.5t-33 102q0 42 14 76l151 -23q-7 -25 -7 -49q0 -41 26.5 -65.5t67.5 -24.5q43 0 70 25.5t27 70.5q0 48 -27 74.5t-71 26.5h-35v116h38q79 0 79 77q0 38 -23.5 58t-57.5 20q-36 0 -57.5 -21.5t-21.5 -52.5q0 -19 5 -37l-154 -23
q-8 34 -8 56q0 56 31.5 99t85.5 66.5t119 23.5q67 0 121 -22t85.5 -64t31.5 -100q0 -49 -20.5 -85t-71.5 -54v-3q53 -17 80.5 -63t27.5 -102q0 -54 -30.5 -99.5t-88 -72t-135.5 -26.5q-71 0 -128.5 25.5z" />
    <glyph glyph-name="uni10D6" unicode="&#x10d6;" horiz-adv-x="615" 
d="M196 18.5q-58 28.5 -90 79.5t-32 114q0 78 48 133q-45 18 -73.5 57t-28.5 92t29 96.5t80 68.5t115 25q63 0 114 -24t79.5 -64t28.5 -88q0 -65 -31 -96v-2q67 -23 106 -76.5t39 -122.5q0 -62 -32.5 -112.5t-90 -79.5t-130.5 -29t-131 28.5zM295 431q19 23 19 62
q0 37 -18 60t-51 23q-34 0 -52.5 -23.5t-18.5 -60.5q0 -26 12.5 -47.5t32.5 -31.5q39 15 76 18zM395.5 132.5q25.5 31.5 25.5 80.5q0 47 -25.5 79t-68.5 32t-68.5 -32t-25.5 -79q0 -49 25.5 -80.5t68.5 -31.5t68.5 31.5z" />
    <glyph glyph-name="uni10D7" unicode="&#x10d7;" horiz-adv-x="927" 
d="M109 77q-69 87 -69 260t69 260.5t194 87.5q60 0 108.5 -25.5t69.5 -73.5h4q22 49 65.5 74t98.5 25q110 0 174.5 -84t64.5 -252q0 -181 -73 -349h-150v4q32 79 49 160t17 184q0 118 -23 169t-65 51q-38 0 -57.5 -37t-19.5 -121v-83q0 -167 -66.5 -252t-196.5 -85
q-125 0 -194 87zM382 166.5q26 55.5 26 170.5q0 116 -26 171.5t-79 55.5t-79 -55.5t-26 -171.5q0 -115 26 -170.5t79 -55.5t79 55.5z" />
    <glyph glyph-name="uni10D8" unicode="&#x10d8;" horiz-adv-x="615" 
d="M226.5 509q-28.5 -55 -28.5 -165q0 -168 52 -340v-4h-150q-27 74 -43.5 165t-16.5 190q0 160 71.5 245t196.5 85q126 0 197 -89t71 -249q0 -180 -59 -347h-150v4q51 153 51 340q0 110 -28.5 165t-81.5 55t-81.5 -55z" />
    <glyph glyph-name="uni10D9" unicode="&#x10d9;" horiz-adv-x="566" 
d="M154 17.5q-57 25.5 -89.5 70.5t-32.5 102q0 42 14 76l151 -23q-7 -25 -7 -49q0 -41 26 -65.5t66 -24.5q42 0 67 29t25 76q0 57 -29 85t-74 28h-40v116h38q41 0 65 24t24 64q0 29 -13 63t-27 52l143 42q25 -35 39 -73.5t14 -88.5q0 -45 -26 -80t-82 -54v-3
q62 -22 93.5 -70t31.5 -112q0 -55 -29.5 -103t-86 -77.5t-133.5 -29.5q-71 0 -128 25.5z" />
    <glyph glyph-name="uni10DA" unicode="&#x10da;" horiz-adv-x="1017" 
d="M551 71q-44 23 -112 23h-195q-59 0 -102 -13v107l69 6v3q-76 33 -128.5 96.5t-52.5 157.5q0 75 26.5 127.5t72.5 78.5t104 26q49 0 84 -19.5t54 -50.5h5q18 32 50.5 51t79.5 19q46 0 78 -19t49 -51h5q18 31 53 50.5t78 19.5q98 0 155.5 -61t57.5 -165q0 -60 -12 -105.5
t-32 -90.5l-142 37q28 79 28 154q0 118 -68 118q-60 0 -58 -84l3 -154h-142l3 164q1 36 -14 55t-42 19q-28 0 -43.5 -19.5t-14.5 -55.5l3 -163h-142l3 155q1 40 -13.5 61.5t-41.5 21.5q-30 0 -50 -29t-20 -92q0 -104 71.5 -161.5t189.5 -70.5q153 -17 230 -66t77 -148h-151
q-9 45 -53 68z" />
    <glyph glyph-name="uni10DB" unicode="&#x10db;" horiz-adv-x="598" 
d="M156.5 18.5q-57.5 28.5 -89.5 81t-32 120.5q0 74 35 126t91.5 77.5t121.5 25.5q38 0 59.5 -3t41.5 -9v52q0 45 -25.5 65t-64.5 20q-35 0 -60 -19t-25 -51q0 -6 1 -10l-155 -28q-4 16 -4 28q0 55 32 99t86.5 68.5t121.5 24.5q70 0 127 -25t90 -70t33 -103v-268
q0 -68 -30.5 -120t-87.5 -81t-135 -29q-74 0 -131.5 28.5zM360 127.5q24 26.5 24 84.5v110q-30 10 -75 10q-53 0 -84.5 -31.5t-31.5 -83.5q0 -55 25 -85.5t70 -30.5q48 0 72 26.5z" />
    <glyph glyph-name="uni10DC" unicode="&#x10dc;" horiz-adv-x="596" 
d="M174 19q-57 29 -87.5 81t-30.5 120v291q0 81 50.5 128t137.5 47q47 0 96 -7q9 -1 31 -3t41 -2q43 0 88 12l23 -127q-43 -14 -84 -14q-25 0 -46.5 4.5t-50.5 12.5q-17 5 -34 8.5t-31 3.5q-64 0 -64 -60v-87q48 22 111 22q60 0 114.5 -25.5t89 -77.5t34.5 -126
q0 -68 -32 -120.5t-89.5 -81t-131.5 -28.5q-78 0 -135 29zM379 131.5q25 30.5 25 85.5q0 56 -30.5 85.5t-76.5 29.5q-25 0 -47.5 -6t-36.5 -14v-100q0 -58 24 -84.5t72 -26.5q45 0 70 30.5z" />
    <glyph glyph-name="uni10DD" unicode="&#x10dd;" horiz-adv-x="865" 
d="M507 178h-149l3 217q1 95 -17.5 134t-55.5 39q-40 0 -65 -52t-25 -168q0 -99 17 -179t48 -165v-4h-150q-73 173 -73 357q0 109 30.5 182.5t83.5 109.5t121 36q53 0 95 -25t61 -68h4q19 43 61 68t95 25q108 0 171.5 -84t63.5 -252q0 -181 -73 -349h-150v4q32 79 49 160
t17 184q0 117 -24 168.5t-64 51.5q-41 0 -59.5 -41.5t-17.5 -132.5z" />
    <glyph glyph-name="uni10DE" unicode="&#x10de;" horiz-adv-x="573" 
d="M158 16q-56 26 -85.5 70.5t-29.5 96.5q0 35 11 65l153 -23q-5 -17 -5 -32q0 -38 23 -65t66 -27q38 0 63.5 25t25.5 71q0 42 -28 67t-70 25h-42v116h52q31 0 48.5 9t17.5 35q0 19 -15.5 33t-48.5 33q-31 19 -50.5 33.5t-33.5 37t-14 53.5q0 16 5 35h161q-1 -4 -1 -9
q0 -19 13 -31.5t43 -32.5q46 -29 71.5 -59.5t25.5 -84.5q0 -43 -20.5 -71t-66.5 -42v-3q51 -12 81 -57t30 -97q0 -56 -30.5 -101t-86.5 -70.5t-130 -25.5q-77 0 -133 26z" />
    <glyph glyph-name="uni10DF" unicode="&#x10df;" horiz-adv-x="593" 
d="M530 674v-460q0 -63 -30.5 -113.5t-86.5 -79.5t-130 -29q-69 0 -125.5 25.5t-89 70.5t-32.5 102q0 42 14 76l151 -23q-7 -25 -7 -49q0 -40 25.5 -65t63.5 -25q40 0 65.5 23.5t25.5 76.5v361l-151 -27q39 -11 63 -41t24 -67q0 -60 -47.5 -87.5t-110.5 -27.5q-66 0 -117 30
l27 85q37 -17 70 -17q49 0 49 36q0 18 -21 34.5t-62 16.5v120l276 54h156z" />
    <glyph glyph-name="uni10E0" unicode="&#x10e0;" horiz-adv-x="789" 
d="M652 426q48 -27 75.5 -77.5t27.5 -117.5q0 -119 -60 -231h-147v2q27 54 39 103t12 113q0 61 -21 91.5t-54 30.5q-28 0 -45.5 -22t-16.5 -72l3 -144h-142l3 145q1 93 -58 93q-33 0 -55 -31t-22 -91t12.5 -109t39.5 -107v-2h-147q-25 48 -43 123t-18 161q0 177 95 280
t280 110l55 2q79 2 128 8l-8 -135q-29 -6 -53.5 -7.5t-60.5 -1.5q-26 0 -40 -1q-69 -3 -119.5 -12.5t-91.5 -37t-58 -79.5h5q44 43 109 43q37 0 69.5 -20t46.5 -55h5q16 34 57.5 54.5t88.5 20.5q61 0 109 -27z" />
    <glyph glyph-name="uni10E1" unicode="&#x10e1;" horiz-adv-x="590" 
d="M485.5 383q8.5 -19 25.5 -44q23 -34 35 -65t12 -83q0 -57 -32 -103t-89.5 -72t-130.5 -26q-78 0 -135 29t-87.5 81t-30.5 119v455h156v-462q0 -57 26.5 -84t70.5 -27q43 0 68.5 24.5t25.5 63.5q0 28 -9.5 47.5t-29.5 46.5q-23 29 -35 55t-12 66q0 29 9 56l156 -10
q-2 -10 -2 -20q0 -28 8.5 -47z" />
    <glyph glyph-name="uni10E2" unicode="&#x10e2;" horiz-adv-x="749" 
d="M589.5 598.5q61.5 -45.5 93 -114.5t31.5 -151q0 -105 -42 -182t-119 -118t-179 -41q-103 0 -180 44t-118.5 120.5t-41.5 172.5q0 82 33 152t94.5 116t144.5 60l-3 29h142l-3 -29q86 -13 147.5 -58.5zM508.5 161q46.5 57 46.5 173q0 175 -116 209l16 -279h-162l16 279
q-56 -18 -86.5 -71.5t-30.5 -142.5q0 -113 47.5 -169t134.5 -56q88 0 134.5 57z" />
    <glyph glyph-name="uni10E3" unicode="&#x10e3;" horiz-adv-x="611" 
d="M472.5 662.5q39.5 -20.5 62.5 -58t23 -87.5v-293q0 -68 -31.5 -120.5t-89 -82t-132.5 -29.5q-72 0 -129.5 26.5t-90.5 74t-33 107.5q0 49 25 95l145 -22q-12 -31 -12 -65q0 -45 23.5 -74.5t71.5 -29.5q43 0 70 25.5t27 84.5v306q0 24 -12 38t-33 14q-20 0 -31.5 -14.5
t-11.5 -37.5v-121h-157v115q0 20 -10.5 32.5t-29.5 12.5q-9 0 -31 -4t-35 -4q-20 0 -34 10l38 122q15 -5 30 -5q6 0 22 2q30 3 36 3q35 0 63 -16.5t45 -50.5h3q17 33 51.5 50t81.5 17q46 0 85.5 -20.5z" />
    <glyph glyph-name="uni10E4" unicode="&#x10e4;" horiz-adv-x="816" 
d="M334.5 13.5q-66.5 21.5 -107 64t-40.5 104.5q0 9 2 27l159 -12q-1 -4 -1 -12q0 -35 38 -58t91 -23q62 0 97.5 24.5t35.5 65.5q0 39 -22.5 62t-58.5 23h-4v115h21q37 0 58.5 18.5t21.5 66.5q0 41 -20.5 67t-52.5 26q-24 0 -38 -12t-14 -35q0 -11 2 -25q3 -13 3 -33
q0 -63 -34 -109t-89 -70t-117 -24q-64 0 -117.5 26t-85.5 74.5t-32 112.5q0 57 29.5 104.5t81.5 74.5t117 27q55 0 98 -18t66 -56h3q40 74 160 74q52 0 97 -23t72 -67t27 -102q0 -52 -28 -93t-83 -60v-3q47 -12 71 -54t24 -91q0 -53 -34.5 -98t-100 -72.5t-152.5 -27.5
q-77 0 -143.5 21.5zM329 401.5q21 29.5 21 71.5q0 44 -20 73t-63 29q-42 0 -62.5 -29.5t-20.5 -72.5q0 -42 21 -71.5t62 -29.5t62 29.5z" />
    <glyph glyph-name="uni10E5" unicode="&#x10e5;" horiz-adv-x="586" 
d="M524 674v-460q0 -63 -30.5 -113.5t-86.5 -79.5t-130 -29q-69 0 -125.5 25.5t-89 70.5t-32.5 102q0 42 14 76l151 -23q-7 -25 -7 -49q0 -40 25.5 -65t63.5 -25q40 0 65.5 23.5t25.5 76.5v253q-35 19 -72 19q-74 0 -74 -73q0 -16 6 -42l-153 -14q-12 38 -12 77
q0 51 25.5 89.5t68.5 59.5t94 21q32 0 65 -9t52 -21v110h156z" />
    <glyph glyph-name="uni10E6" unicode="&#x10e6;" horiz-adv-x="771" 
d="M431.5 64.5q-42.5 19.5 -108.5 19.5h-96q-62 0 -102 -13v108l74 6v3q-76 41 -120 99t-44 160q0 76 28 129t76 80t106 27q47 0 82.5 -20t52.5 -60h5q15 40 52.5 60t87.5 20q62 0 109.5 -28.5t74.5 -80t27 -119.5q0 -115 -38 -193l-144 36q25 69 25 152q0 61 -21 90.5
t-53 29.5q-25 0 -39.5 -19t-13.5 -57l4 -162h-143l4 163q1 38 -13 56.5t-38 18.5q-31 0 -52.5 -31.5t-21.5 -104.5q0 -94 52.5 -153.5t149.5 -76.5q121 -21 180.5 -65.5t59.5 -135.5h-151q-9 42 -51.5 61.5z" />
    <glyph glyph-name="uni10E7" unicode="&#x10e7;" horiz-adv-x="605" 
d="M169.5 17.5q-56.5 25.5 -89 70.5t-32.5 102q0 42 14 76l151 -23q-7 -25 -7 -49q0 -40 25.5 -65t63.5 -25q40 0 65.5 23.5t25.5 76.5v128q-19 -12 -54 -21t-73 -9q-57 0 -108 26.5t-82.5 78.5t-31.5 125q0 40 10 77t24 65h150q-14 -42 -19.5 -71.5t-5.5 -59.5
q0 -58 28.5 -90.5t82.5 -32.5q23 0 41 5t38 15v234h156v-460q0 -63 -30.5 -113.5t-86.5 -79.5t-130 -29q-69 0 -125.5 25.5z" />
    <glyph glyph-name="uni10E8" unicode="&#x10e8;" horiz-adv-x="594" 
d="M156.5 18.5q-57.5 28.5 -89.5 79t-32 115.5q0 73 35 124t91.5 76.5t121.5 25.5q38 0 59.5 -3t41.5 -9v99q0 21 -12 34.5t-33 13.5q-19 0 -30.5 -13.5t-11.5 -33.5v-38h-153v18q0 26 -15 40.5t-44 14.5q-25 0 -51 -6l-7 120q40 10 79 10q35 0 66 -17.5t48 -50.5h3
q20 33 58 50.5t85 17.5q46 0 86 -20t64.5 -57t24.5 -84v-305q0 -68 -30.5 -120t-87.5 -81t-135 -29q-74 0 -131.5 28.5zM360 127.5q24 26.5 24 84.5v100q-30 10 -70 10q-53 0 -87 -31.5t-34 -80.5q0 -50 25.5 -79.5t69.5 -29.5q48 0 72 26.5z" />
    <glyph glyph-name="uni10E9" unicode="&#x10e9;" horiz-adv-x="603" 
d="M63 494q0 57 31 101t82 67.5t111 23.5q58 0 108.5 -20t81.5 -57t31 -86q0 -40 -18 -68.5t-56 -48.5q65 -20 99.5 -69.5t34.5 -124.5q0 -64 -11 -114.5t-30 -97.5h-150v2q19 49 27 93.5t8 97.5q0 58 -28.5 94.5t-80.5 36.5q-44 0 -84 -20v-304h-156v494zM278 441
q31 10 52 30t21 46q0 25 -17 41t-47 16q-31 0 -49.5 -18.5t-18.5 -52.5v-81z" />
    <glyph glyph-name="uni10EA" unicode="&#x10ea;" horiz-adv-x="657" 
d="M172 42.5q-71 50.5 -104 135.5t-33 190q0 89 19.5 162.5t54.5 142.5l150 1q-39 -85 -53.5 -152t-14.5 -142q0 -126 41.5 -201t122.5 -75q50 0 80 28t30 74q0 47 -29.5 74.5t-80.5 27.5h-35v121h67q66 0 66 40q0 19 -10.5 34t-32.5 36q-26 25 -40 46t-14 52q0 21 4 37h152
l-1 -9q0 -19 10 -34.5t31 -37.5q28 -29 43 -54.5t15 -63.5q0 -42 -27 -70t-81 -43v-3q53 -14 87 -59t34 -99q0 -57 -32 -105t-93.5 -76t-145.5 -28q-109 0 -180 50.5z" />
    <glyph glyph-name="uni10EB" unicode="&#x10eb;" horiz-adv-x="598" 
d="M541 220q0 -68 -30.5 -120t-87.5 -81t-135 -29q-74 0 -131.5 28.5t-89.5 81t-32 120.5q0 74 35 126t91.5 77.5t121.5 25.5q38 0 59.5 -3t41.5 -9v237h157v-454zM384 322q-30 10 -70 10q-54 0 -87.5 -32t-33.5 -83q0 -55 25 -85.5t70 -30.5q48 0 72 26.5t24 84.5v110z" />
    <glyph glyph-name="uni10EC" unicode="&#x10ec;" horiz-adv-x="602" 
d="M171 19q-57 29 -87.5 81t-30.5 120v305q0 47 24.5 84t64.5 57t86 20q47 0 85 -17.5t58 -50.5h3q17 33 48 50.5t66 17.5q39 0 79 -10l-7 -120q-26 6 -51 6q-29 0 -44 -14.5t-15 -40.5v-18h-153v38q0 20 -11.5 33.5t-30.5 13.5q-21 0 -33 -13.5t-12 -34.5v-99q48 22 111 22
q60 0 114.5 -25.5t89 -77.5t34.5 -126q0 -68 -32 -120.5t-89.5 -81t-131.5 -28.5q-78 0 -135 29zM376 131.5q25 30.5 25 85.5q0 56 -30.5 85.5t-76.5 29.5q-25 0 -47.5 -6t-36.5 -14v-100q0 -58 24 -84.5t72 -26.5q45 0 70 30.5z" />
    <glyph glyph-name="uni10ED" unicode="&#x10ed;" horiz-adv-x="692" 
d="M151.5 17.5q-56.5 25.5 -89 70.5t-32.5 102q0 42 14 76l151 -23q-7 -25 -7 -49q0 -40 25.5 -65t63.5 -25q40 0 65.5 23.5t25.5 76.5v123q-59 -31 -128 -31q-46 0 -86.5 18t-65.5 52t-25 79t25 79t65.5 52t86.5 18q36 0 66.5 -7.5t61.5 -24.5v112h146v-154q50 40 100 98
l68 -89q-64 -54 -147 -93q44 -20 78.5 -41t68.5 -48l-68 -94q-48 58 -100 99v-138q0 -64 -28 -114.5t-81.5 -79t-127.5 -28.5q-69 0 -125.5 25.5zM368 429v31q-49 26 -100 26q-29 0 -47.5 -10t-18.5 -31t18.5 -31t47.5 -10q53 0 100 25z" />
    <glyph glyph-name="uni10EE" unicode="&#x10ee;" horiz-adv-x="592" 
d="M435.5 423.5q54.5 -25.5 89 -77.5t34.5 -126q0 -68 -32 -120.5t-89.5 -81t-131.5 -28.5q-78 0 -135 29t-87.5 81t-30.5 120v454h157v-247q48 22 111 22q60 0 114.5 -25.5zM376 131.5q25 30.5 25 85.5q0 56 -30.5 85.5t-76.5 29.5q-25 0 -47.5 -6t-36.5 -14v-100
q0 -58 24 -84.5t72 -26.5q45 0 70 30.5z" />
    <glyph glyph-name="uni10EF" unicode="&#x10ef;" horiz-adv-x="561" 
d="M148.5 17.5q-56.5 25.5 -89 70.5t-32.5 102q0 42 14 76l151 -23q-7 -25 -7 -49q0 -40 25.5 -65t63.5 -25q39 0 65 20.5t26 60.5q0 32 -16 57t-50 61q-40 41 -64 77.5t-31 89.5q-112 11 -177 11v111q70 0 175 -12v94h155v-110q115 -11 177 -10v-112q-68 0 -163 10
q10 -22 24.5 -40t40.5 -45q28 -29 45 -51t29 -53.5t12 -72.5q0 -55 -30 -100.5t-86.5 -71.5t-131.5 -26q-69 0 -125.5 25.5z" />
    <glyph glyph-name="uni10F0" unicode="&#x10f0;" horiz-adv-x="542" 
d="M141.5 9q-54.5 19 -87 54.5t-32.5 84.5q0 19 6 41l148 -21l-1 -10q0 -27 24 -42t60 -15q34 0 58.5 14.5t24.5 40.5q0 27 -22 41.5t-61 14.5h-32v106h61q19 0 30.5 9t11.5 24q0 14 -12 24t-30 10h-62v105h39q54 0 54 29q0 13 -11 22.5t-34 20.5q-35 17 -54.5 36.5
t-19.5 54.5q0 5 2 21h161q-1 -15 8.5 -25t32.5 -24q34 -21 52.5 -43t18.5 -62q0 -67 -82 -84v-3q45 -6 69 -31t24 -55q0 -38 -18 -60.5t-61 -31.5v-3q46 -13 69.5 -42.5t23.5 -67.5q0 -44 -30 -78.5t-84 -54t-125 -19.5q-65 0 -119.5 19z" />
    <glyph glyph-name="Wgrave" unicode="&#x1e80;" horiz-adv-x="888" 
d="M518 712h-122l-122 121h160zM15 674h163l51 -278q14 -77 40 -235h2q13 84 44 237l57 276h162l54 -284q20 -104 36 -226h2q7 55 30 182l9 52l55 276h155l-174 -674h-165l-57 290q-23 119 -32 208h-2q-20 -128 -39 -208l-64 -290h-167z" />
    <glyph glyph-name="wgrave" unicode="&#x1e81;" horiz-adv-x="759" 
d="M455 550h-104l-123 152h141zM205 289q18 -94 28 -161h2q10 56 36 160l52 201h120l49 -195q26 -110 36 -166h2q8 67 28 167l42 194h149l-150 -489h-143l-46 172q-17 68 -31 152h-2q-12 -81 -32 -152l-49 -172h-143l-142 489h155z" />
    <glyph glyph-name="Wacute" unicode="&#x1e82;" horiz-adv-x="888" 
d="M506 710h-122l84 123h160zM15 674h163l51 -278q14 -77 40 -235h2q13 84 44 237l57 276h162l54 -284q20 -104 36 -226h2q7 55 30 182l9 52l55 276h155l-174 -674h-165l-57 290q-23 119 -32 208h-2q-20 -128 -39 -208l-64 -290h-167z" />
    <glyph glyph-name="wacute" unicode="&#x1e83;" horiz-adv-x="759" 
d="M416 550h-105l86 152h141zM205 289q18 -94 28 -161h2q10 56 36 160l52 201h120l49 -195q26 -110 36 -166h2q8 67 28 167l42 194h149l-150 -489h-143l-46 172q-17 68 -31 152h-2q-12 -81 -32 -152l-49 -172h-143l-142 489h155z" />
    <glyph glyph-name="Wdieresis" unicode="&#x1e84;" horiz-adv-x="888" 
d="M301 733q-20 20 -20 48q0 29 20.5 49t49.5 20q28 0 47 -20t19 -49q0 -28 -19 -48t-47 -20q-30 0 -50 20zM509.5 733q-19.5 20 -19.5 48q0 29 19.5 49t48.5 20q28 0 47.5 -20t19.5 -49q0 -28 -19.5 -48t-47.5 -20q-29 0 -48.5 20zM15 674h163l51 -278q14 -77 40 -235h2
q13 84 44 237l57 276h162l54 -284q20 -104 36 -226h2q7 55 30 182l9 52l55 276h155l-174 -674h-165l-57 290q-23 119 -32 208h-2q-20 -128 -39 -208l-64 -290h-167z" />
    <glyph glyph-name="wdieresis" unicode="&#x1e85;" horiz-adv-x="759" 
d="M224 577.5q-21 20.5 -21 49.5q0 30 21 50.5t51 20.5q29 0 48.5 -20t19.5 -51q0 -29 -19.5 -49.5t-48.5 -20.5q-30 0 -51 20.5zM434.5 577.5q-20.5 20.5 -20.5 49.5q0 31 20.5 51t50.5 20q29 0 49 -20t20 -51q0 -29 -19.5 -49.5t-49.5 -20.5t-50.5 20.5zM205 289
q18 -94 28 -161h2q10 56 36 160l52 201h120l49 -195q26 -110 36 -166h2q8 67 28 167l42 194h149l-150 -489h-143l-46 172q-17 68 -31 152h-2q-12 -81 -32 -152l-49 -172h-143l-142 489h155z" />
    <glyph glyph-name="uni1EA0" unicode="&#x1ea0;" horiz-adv-x="656" 
d="M175 0h-158l206 674h200l209 -674h-164l-52 173h-193zM352 430q-10 34 -29 110l-5 20h-2l-12 -52q-13 -58 -19 -78l-40 -143h149zM273.5 -197q-20.5 20 -20.5 48q0 29 20.5 49t49.5 20q28 0 47.5 -20t19.5 -49q0 -27 -19.5 -47.5t-47.5 -20.5q-29 0 -49.5 20z" />
    <glyph glyph-name="uni1EA1" unicode="&#x1ea1;" horiz-adv-x="528" 
d="M330 49h-3q-24 -29 -60 -44.5t-80 -15.5q-48 0 -84 21t-55 55t-19 74q0 93 76.5 140.5t210.5 46.5v7q0 25 -19.5 44t-69.5 19q-36 0 -73 -10.5t-62 -26.5l-28 98q31 17 80.5 30t109.5 13q114 0 164.5 -58t50.5 -153v-170q0 -81 7 -119h-137zM217.5 214
q-38.5 -18 -38.5 -60q0 -28 16.5 -43t43.5 -15q28 0 49.5 16t29.5 40q3 12 3 26v53q-65 1 -103.5 -17zM314.5 -100q19.5 -20 19.5 -51q0 -29 -19.5 -49.5t-49.5 -20.5t-50.5 20.5t-20.5 49.5q0 31 20.5 51t51.5 20q29 0 48.5 -20z" />
    <glyph glyph-name="uni1EA2" unicode="&#x1ea2;" horiz-adv-x="656" 
d="M304.5 745.5q6.5 9.5 17.5 21.5q10 11 15 19.5t5 20.5q0 13 -8.5 21.5t-20.5 8.5q-23 0 -45 -34l-48 29q40 79 122 79q40 0 68.5 -25t28.5 -60q0 -25 -9.5 -40.5t-29.5 -34.5q-26 -26 -37 -45l-70 15q5 15 11.5 24.5zM175 0h-158l206 674h200l209 -674h-164l-52 173h-193
zM352 430q-10 34 -29 110l-5 20h-2l-12 -52q-13 -58 -19 -78l-40 -143h149z" />
    <glyph glyph-name="uni1EA3" unicode="&#x1ea3;" horiz-adv-x="528" 
d="M229.5 570.5q7.5 11.5 19.5 24.5q12 14 17.5 23.5t5.5 22.5q0 15 -9 24t-21 9q-23 0 -43 -34l-50 30q18 37 48.5 58t72.5 21t71 -24.5t29 -62.5q0 -27 -11 -45.5t-33 -42.5q-27 -29 -35 -47l-73 16q4 16 11.5 27.5zM330 49h-3q-24 -29 -60 -44.5t-80 -15.5q-48 0 -84 21
t-55 55t-19 74q0 93 76.5 140.5t210.5 46.5v7q0 25 -19.5 44t-69.5 19q-36 0 -73 -10.5t-62 -26.5l-28 98q31 17 80.5 30t109.5 13q114 0 164.5 -58t50.5 -153v-170q0 -81 7 -119h-137zM217.5 214q-38.5 -18 -38.5 -60q0 -28 16.5 -43t43.5 -15q28 0 49.5 16t29.5 40
q3 12 3 26v53q-65 1 -103.5 -17z" />
    <glyph glyph-name="uni1EA4" unicode="&#x1ea4;" horiz-adv-x="656" 
d="M494 801h-73l76 114h131zM472 710h-98l-44 63h-2l-45 -63h-97l90 123h106zM175 0h-158l206 674h200l209 -674h-164l-52 173h-193zM352 430q-10 34 -29 110l-5 20h-2l-12 -52q-13 -58 -19 -78l-40 -143h149z" />
    <glyph glyph-name="uni1EA5" unicode="&#x1ea5;" horiz-adv-x="528" 
d="M441 648h-77l76 150h116zM401 550h-97l-44 87h-2l-45 -87h-97l90 152h106zM330 49h-3q-24 -29 -60 -44.5t-80 -15.5q-48 0 -84 21t-55 55t-19 74q0 93 76.5 140.5t210.5 46.5v7q0 25 -19.5 44t-69.5 19q-36 0 -73 -10.5t-62 -26.5l-28 98q31 17 80.5 30t109.5 13
q114 0 164.5 -58t50.5 -153v-170q0 -81 7 -119h-137zM217.5 214q-38.5 -18 -38.5 -60q0 -28 16.5 -43t43.5 -15q28 0 49.5 16t29.5 40q3 12 3 26v53q-65 1 -103.5 -17z" />
    <glyph glyph-name="uni1EA6" unicode="&#x1ea6;" horiz-adv-x="656" 
d="M551 788h-79l-117 113h131zM466 710h-98l-44 63h-2l-45 -63h-97l90 123h106zM175 0h-158l206 674h200l209 -674h-164l-52 173h-193zM352 430q-10 34 -29 110l-5 20h-2l-12 -52q-13 -58 -19 -78l-40 -143h149z" />
    <glyph glyph-name="uni1EA7" unicode="&#x1ea7;" horiz-adv-x="528" 
d="M484 648h-76l-107 151h115zM403 550h-97l-44 87h-3l-44 -87h-97l90 152h106zM330 49h-3q-24 -29 -60 -44.5t-80 -15.5q-48 0 -84 21t-55 55t-19 74q0 93 76.5 140.5t210.5 46.5v7q0 25 -19.5 44t-69.5 19q-36 0 -73 -10.5t-62 -26.5l-28 98q31 17 80.5 30t109.5 13
q114 0 164.5 -58t50.5 -153v-170q0 -81 7 -119h-137zM217.5 214q-38.5 -18 -38.5 -60q0 -28 16.5 -43t43.5 -15q28 0 49.5 16t29.5 40q3 12 3 26v53q-65 1 -103.5 -17z" />
    <glyph glyph-name="uni1EA8" unicode="&#x1ea8;" horiz-adv-x="656" 
d="M479 816q12 14 16.5 21t4.5 18q0 13 -9 21.5t-21 8.5q-26 0 -46 -36l-45 27q38 73 112 73q39 0 64.5 -22.5t25.5 -56.5q0 -21 -8 -34t-27 -32q-24 -22 -37 -46l-59 14q7 20 29 44zM467 710h-98l-44 63h-2l-45 -63h-97l90 123h106zM175 0h-158l206 674h200l209 -674h-164
l-52 173h-193zM352 430q-10 34 -29 110l-5 20h-2l-12 -52q-13 -58 -19 -78l-40 -143h149z" />
    <glyph glyph-name="uni1EA9" unicode="&#x1ea9;" horiz-adv-x="528" 
d="M406 691q10 11 14.5 18.5t4.5 17.5q0 13 -8 21t-20 8q-22 0 -43 -33l-44 28q38 73 113 73q38 0 64 -23.5t26 -55.5q0 -23 -8.5 -37t-27.5 -33q-9 -9 -18.5 -19.5t-16.5 -22.5l-64 14q8 21 28 44zM402 550h-97l-45 87h-2l-44 -87h-97l89 152h106zM330 49h-3
q-24 -29 -60 -44.5t-80 -15.5q-48 0 -84 21t-55 55t-19 74q0 93 76.5 140.5t210.5 46.5v7q0 25 -19.5 44t-69.5 19q-36 0 -73 -10.5t-62 -26.5l-28 98q31 17 80.5 30t109.5 13q114 0 164.5 -58t50.5 -153v-170q0 -81 7 -119h-137zM217.5 214q-38.5 -18 -38.5 -60
q0 -28 16.5 -43t43.5 -15q28 0 49.5 16t29.5 40q3 12 3 26v53q-65 1 -103.5 -17z" />
    <glyph glyph-name="uni1EAA" unicode="&#x1eaa;" horiz-adv-x="656" 
d="M208 931.5q22 30.5 61 30.5q29 0 64 -20q4 -2 18.5 -9.5t24.5 -7.5q12 0 18 8.5t8 31.5h70q4 -115 -82 -115q-19 0 -32.5 5t-35.5 17q-11 6 -21 10t-18 4q-10 0 -16.5 -10t-8.5 -27h-71q-1 52 21 82.5zM483 710h-107l-50 62h-2l-50 -62h-106l100 123h114zM175 0h-158
l206 674h200l209 -674h-164l-52 173h-193zM352 430q-10 34 -29 110l-5 20h-2l-12 -52q-13 -58 -19 -78l-40 -143h149z" />
    <glyph glyph-name="uni1EAB" unicode="&#x1eab;" horiz-adv-x="528" 
d="M147 779.5q22 30.5 61 30.5q29 0 64 -20q4 -2 18.5 -9t24.5 -7q13 0 19 8t7 31h70q4 -115 -82 -115q-18 0 -31 5t-36 17q-12 6 -21.5 10t-18.5 4q-21 0 -24 -37h-72q-1 52 21 82.5zM412 550h-99l-47 71h-2l-48 -71h-99l95 130h106zM330 49h-3q-24 -29 -60 -44.5
t-80 -15.5q-48 0 -84 21t-55 55t-19 74q0 93 76.5 140.5t210.5 46.5v7q0 25 -19.5 44t-69.5 19q-36 0 -73 -10.5t-62 -26.5l-28 98q31 17 80.5 30t109.5 13q114 0 164.5 -58t50.5 -153v-170q0 -81 7 -119h-137zM217.5 214q-38.5 -18 -38.5 -60q0 -28 16.5 -43t43.5 -15
q28 0 49.5 16t29.5 40q3 12 3 26v53q-65 1 -103.5 -17z" />
    <glyph glyph-name="uni1EAC" unicode="&#x1eac;" horiz-adv-x="656" 
d="M486 710h-107l-50 62h-2l-50 -62h-106l100 123h114zM175 0h-158l206 674h200l209 -674h-164l-52 173h-193zM352 430q-10 34 -29 110l-5 20h-2l-12 -52q-13 -58 -19 -78l-40 -143h149zM269.5 -197q-20.5 20 -20.5 48q0 29 20.5 49t49.5 20q28 0 47.5 -20t19.5 -49
q0 -27 -19.5 -47.5t-47.5 -20.5q-29 0 -49.5 20z" />
    <glyph glyph-name="uni1EAD" unicode="&#x1ead;" horiz-adv-x="528" 
d="M411 550h-99l-50 87h-2l-51 -87h-99l100 152h102zM330 49h-3q-24 -29 -60 -44.5t-80 -15.5q-48 0 -84 21t-55 55t-19 74q0 93 76.5 140.5t210.5 46.5v7q0 25 -19.5 44t-69.5 19q-36 0 -73 -10.5t-62 -26.5l-28 98q31 17 80.5 30t109.5 13q114 0 164.5 -58t50.5 -153v-170
q0 -81 7 -119h-137zM217.5 214q-38.5 -18 -38.5 -60q0 -28 16.5 -43t43.5 -15q28 0 49.5 16t29.5 40q3 12 3 26v53q-65 1 -103.5 -17zM314.5 -100q19.5 -20 19.5 -51q0 -29 -19.5 -49.5t-49.5 -20.5t-50.5 20.5t-20.5 49.5q0 31 20.5 51t51.5 20q29 0 48.5 -20z" />
    <glyph glyph-name="uni1EAE" unicode="&#x1eae;" horiz-adv-x="656" 
d="M356 811h-81l70 113h135zM276 787q18 -13 50 -13q62 0 75 47h67q-6 -52 -43.5 -87.5t-100.5 -35.5q-64 0 -99.5 34t-41.5 89h69q6 -21 24 -34zM175 0h-158l206 674h200l209 -674h-164l-52 173h-193zM352 430q-10 34 -29 110l-5 20h-2l-12 -52q-13 -58 -19 -78l-40 -143
h149z" />
    <glyph glyph-name="uni1EAF" unicode="&#x1eaf;" horiz-adv-x="528" 
d="M284 662h-79l86 147h117zM200 627.5q21 -16.5 54 -16.5q35 0 56 17.5t23 42.5h73q-2 -63 -44 -101.5t-109 -38.5q-68 0 -108.5 39t-42.5 101h72q5 -27 26 -43.5zM330 49h-3q-24 -29 -60 -44.5t-80 -15.5q-48 0 -84 21t-55 55t-19 74q0 93 76.5 140.5t210.5 46.5v7
q0 25 -19.5 44t-69.5 19q-36 0 -73 -10.5t-62 -26.5l-28 98q31 17 80.5 30t109.5 13q114 0 164.5 -58t50.5 -153v-170q0 -81 7 -119h-137zM217.5 214q-38.5 -18 -38.5 -60q0 -28 16.5 -43t43.5 -15q28 0 49.5 16t29.5 40q3 12 3 26v53q-65 1 -103.5 -17z" />
    <glyph glyph-name="uni1EB0" unicode="&#x1eb0;" horiz-adv-x="656" 
d="M384 811h-81l-123 113h135zM281 787q18 -13 50 -13q62 0 75 47h67q-6 -52 -43.5 -87.5t-100.5 -35.5q-64 0 -99.5 34t-41.5 89h69q6 -21 24 -34zM175 0h-158l206 674h200l209 -674h-164l-52 173h-193zM352 430q-10 34 -29 110l-5 20h-2l-12 -52q-13 -58 -19 -78l-40 -143
h149z" />
    <glyph glyph-name="uni1EB1" unicode="&#x1eb1;" horiz-adv-x="528" 
d="M314 662h-80l-123 147h117zM209 627.5q21 -16.5 54 -16.5q36 0 57 17t23 43h72q-2 -63 -43.5 -101.5t-109.5 -38.5t-108.5 39t-42.5 101h73q4 -27 25 -43.5zM330 49h-3q-24 -29 -60 -44.5t-80 -15.5q-48 0 -84 21t-55 55t-19 74q0 93 76.5 140.5t210.5 46.5v7
q0 25 -19.5 44t-69.5 19q-36 0 -73 -10.5t-62 -26.5l-28 98q31 17 80.5 30t109.5 13q114 0 164.5 -58t50.5 -153v-170q0 -81 7 -119h-137zM217.5 214q-38.5 -18 -38.5 -60q0 -28 16.5 -43t43.5 -15q28 0 49.5 16t29.5 40q3 12 3 26v53q-65 1 -103.5 -17z" />
    <glyph glyph-name="uni1EB2" unicode="&#x1eb2;" horiz-adv-x="656" 
d="M319 856q10 11 14.5 18.5t4.5 17.5q0 13 -8 21t-20 8q-23 0 -43 -33l-44 27q38 74 113 74q38 0 64 -23.5t26 -54.5q0 -23 -9 -37.5t-28 -32.5q-25 -25 -35 -43l-63 14q8 21 28 44zM282 787q18 -13 50 -13q62 0 75 47h67q-6 -52 -43.5 -87.5t-100.5 -35.5q-64 0 -99.5 34
t-41.5 89h69q6 -21 24 -34zM175 0h-158l206 674h200l209 -674h-164l-52 173h-193zM352 430q-10 34 -29 110l-5 20h-2l-12 -52q-13 -58 -19 -78l-40 -143h149z" />
    <glyph glyph-name="uni1EB3" unicode="&#x1eb3;" horiz-adv-x="528" 
d="M247 707q11 13 15 19.5t4 17.5q0 13 -8 21t-20 8t-23.5 -10t-18.5 -23l-45 28q38 73 113 73q38 0 64.5 -23.5t26.5 -55.5q0 -22 -9 -36.5t-27 -31.5q-25 -25 -35 -44l-64 14q7 21 27 43zM207 627.5q21 -16.5 53 -16.5q36 0 57 17t23 43h72q-2 -63 -43.5 -101.5
t-108.5 -38.5q-68 0 -108.5 39t-42.5 101h72q5 -27 26 -43.5zM330 49h-3q-24 -29 -60 -44.5t-80 -15.5q-48 0 -84 21t-55 55t-19 74q0 93 76.5 140.5t210.5 46.5v7q0 25 -19.5 44t-69.5 19q-36 0 -73 -10.5t-62 -26.5l-28 98q31 17 80.5 30t109.5 13q114 0 164.5 -58
t50.5 -153v-170q0 -81 7 -119h-137zM217.5 214q-38.5 -18 -38.5 -60q0 -28 16.5 -43t43.5 -15q28 0 49.5 16t29.5 40q3 12 3 26v53q-65 1 -103.5 -17z" />
    <glyph glyph-name="uni1EB4" unicode="&#x1eb4;" horiz-adv-x="656" 
d="M206.5 927q21.5 29 59.5 29q18 0 32 -5t33 -14q30 -17 43 -17q12 0 18 8.5t8 31.5h70q2 -59 -19.5 -87.5t-62.5 -28.5q-16 0 -28.5 4.5t-23.5 10t-16 7.5q-12 6 -21.5 10t-17.5 4q-10 0 -16 -8.5t-8 -21.5h-72q0 48 21.5 77zM275 787q18 -13 50 -13q62 0 75 47h67
q-6 -52 -43.5 -87.5t-100.5 -35.5q-64 0 -99.5 34t-41.5 89h69q6 -21 24 -34zM175 0h-158l206 674h200l209 -674h-164l-52 173h-193zM352 430q-10 34 -29 110l-5 20h-2l-12 -52q-13 -58 -19 -78l-40 -143h149z" />
    <glyph glyph-name="uni1EB5" unicode="&#x1eb5;" horiz-adv-x="528" 
d="M142 788.5q22 29.5 60 29.5q29 0 65 -20q11 -7 22.5 -12t20.5 -5q12 0 18 8.5t8 31.5h69q2 -59 -19 -87t-62 -28q-19 0 -32.5 5t-35.5 17q-12 6 -21.5 10t-17.5 4q-20 0 -24 -31h-72q-1 48 21 77.5zM210.5 626q19.5 -18 50.5 -18q33 0 53.5 19t22.5 45h71
q-2 -64 -41 -102.5t-106 -38.5q-68 0 -106 39t-40 102h72q4 -28 23.5 -46zM330 49h-3q-24 -29 -60 -44.5t-80 -15.5q-48 0 -84 21t-55 55t-19 74q0 93 76.5 140.5t210.5 46.5v7q0 25 -19.5 44t-69.5 19q-36 0 -73 -10.5t-62 -26.5l-28 98q31 17 80.5 30t109.5 13
q114 0 164.5 -58t50.5 -153v-170q0 -81 7 -119h-137zM217.5 214q-38.5 -18 -38.5 -60q0 -28 16.5 -43t43.5 -15q28 0 49.5 16t29.5 40q3 12 3 26v53q-65 1 -103.5 -17z" />
    <glyph glyph-name="uni1EB6" unicode="&#x1eb6;" horiz-adv-x="656" 
d="M323 802q53 0 63 46h78q-2 -58 -37 -92t-104 -34q-70 0 -104 34t-36 92h81q6 -46 59 -46zM175 0h-158l206 674h200l209 -674h-164l-52 173h-193zM352 430q-10 34 -29 110l-5 20h-2l-12 -52q-13 -58 -19 -78l-40 -143h149zM270.5 -196.5q-20.5 20.5 -20.5 47.5
q0 29 20.5 49t50.5 20q28 0 47 -20t19 -49q0 -27 -19.5 -47.5t-47.5 -20.5q-29 0 -49.5 20.5z" />
    <glyph glyph-name="uni1EB7" unicode="&#x1eb7;" horiz-adv-x="528" 
d="M223 647.5q15 -16.5 40 -16.5q29 0 44 17.5t17 43.5h79q-1 -65 -37 -103.5t-103 -38.5t-102 39.5t-36 102.5h79q4 -28 19 -44.5zM330 49h-3q-24 -29 -60 -44.5t-80 -15.5q-48 0 -84 21t-55 55t-19 74q0 93 76.5 140.5t210.5 46.5v7q0 25 -19.5 44t-69.5 19
q-36 0 -73 -10.5t-62 -26.5l-28 98q31 17 80.5 30t109.5 13q114 0 164.5 -58t50.5 -153v-170q0 -81 7 -119h-137zM217.5 214q-38.5 -18 -38.5 -60q0 -28 16.5 -43t43.5 -15q28 0 49.5 16t29.5 40q3 12 3 26v53q-65 1 -103.5 -17zM314.5 -100q19.5 -20 19.5 -51
q0 -29 -19.5 -49.5t-49.5 -20.5t-50.5 20.5t-20.5 49.5q0 31 20.5 51t51.5 20q29 0 48.5 -20z" />
    <glyph glyph-name="uni1EB8" unicode="&#x1eb8;" horiz-adv-x="534" 
d="M219 285v-160h277v-125h-430v674h416v-125h-263v-140h248v-124h-248zM239.5 -197q-20.5 20 -20.5 48q0 29 20 49t50 20q28 0 47.5 -20t19.5 -49q0 -27 -19.5 -47.5t-47.5 -20.5q-29 0 -49.5 20z" />
    <glyph glyph-name="uni1EB9" unicode="&#x1eb9;" horiz-adv-x="528" 
d="M220.5 127q38.5 -24 95.5 -24q72 0 135 20l20 -103q-75 -30 -177 -30q-123 0 -192 66.5t-69 182.5q0 65 27.5 125t83 98t136.5 38q75 0 124 -34.5t71.5 -89.5t22.5 -120q0 -32 -5 -60h-315q4 -45 42.5 -69zM337.5 368q-19.5 31 -66.5 31q-43 0 -66.5 -30.5t-27.5 -68.5
h180q0 37 -19.5 68zM313.5 -100q19.5 -20 19.5 -51q0 -29 -19.5 -49.5t-49.5 -20.5t-50 20.5t-20 49.5q0 31 20.5 51t50.5 20q29 0 48.5 -20z" />
    <glyph glyph-name="uni1EBA" unicode="&#x1eba;" horiz-adv-x="534" 
d="M259.5 745.5q6.5 9.5 17.5 21.5q10 11 15 19.5t5 20.5q0 13 -8.5 21.5t-20.5 8.5q-23 0 -45 -34l-48 29q40 79 122 79q40 0 68.5 -25t28.5 -60q0 -24 -9.5 -39.5t-29.5 -34.5q-27 -27 -37 -46l-70 15q5 15 11.5 24.5zM219 285v-160h277v-125h-430v674h416v-125h-263v-140
h248v-124h-248z" />
    <glyph glyph-name="uni1EBB" unicode="&#x1ebb;" horiz-adv-x="528" 
d="M228.5 569.5q7.5 11.5 19.5 25.5t17.5 23.5t5.5 22.5q0 15 -8.5 24t-21.5 9q-23 0 -43 -34l-49 30q18 37 48 58t73 21q42 0 70.5 -24.5t28.5 -62.5q0 -27 -11 -45.5t-33 -42.5q-27 -29 -35 -47l-73 16q4 15 11.5 26.5zM220.5 127q38.5 -24 95.5 -24q72 0 135 20l20 -103
q-75 -30 -177 -30q-123 0 -192 66.5t-69 182.5q0 65 27.5 125t83 98t136.5 38q75 0 124 -34.5t71.5 -89.5t22.5 -120q0 -32 -5 -60h-315q4 -45 42.5 -69zM337.5 368q-19.5 31 -66.5 31q-43 0 -66.5 -30.5t-27.5 -68.5h180q0 37 -19.5 68z" />
    <glyph glyph-name="uni1EBC" unicode="&#x1ebc;" horiz-adv-x="534" 
d="M164.5 809.5q20.5 32.5 57.5 32.5q31 0 64 -20q12 -7 24 -13t20 -6q13 0 19 9.5t8 33.5h69q1 -66 -19 -95.5t-60 -29.5q-31 0 -65 19q-7 4 -20 11t-23 7t-16.5 -11t-7.5 -32h-70q-1 62 19.5 94.5zM219 285v-160h277v-125h-430v674h416v-125h-263v-140h248v-124h-248z" />
    <glyph glyph-name="uni1EBD" unicode="&#x1ebd;" horiz-adv-x="528" 
d="M141 654.5q22 34.5 62 34.5q17 0 31 -5t34 -15q3 -2 12.5 -8t16.5 -9t13 -3q12 0 18 9.5t8 35.5h70q4 -129 -82 -129q-19 0 -33 5.5t-36 16.5q-4 2 -12.5 7t-14 7t-11.5 2q-22 0 -24 -45h-72q-2 62 20 96.5zM220.5 127q38.5 -24 95.5 -24q72 0 135 20l20 -103
q-75 -30 -177 -30q-123 0 -192 66.5t-69 182.5q0 65 27.5 125t83 98t136.5 38q75 0 124 -34.5t71.5 -89.5t22.5 -120q0 -32 -5 -60h-315q4 -45 42.5 -69zM337.5 368q-19.5 31 -66.5 31q-43 0 -66.5 -30.5t-27.5 -68.5h180q0 37 -19.5 68z" />
    <glyph glyph-name="uni1EBE" unicode="&#x1ebe;" horiz-adv-x="534" 
d="M443 801h-73l76 114h131zM421 710h-99l-44 63h-2l-44 -63h-97l89 123h106zM219 285v-160h277v-125h-430v674h416v-125h-263v-140h248v-124h-248z" />
    <glyph glyph-name="uni1EBF" unicode="&#x1ebf;" horiz-adv-x="528" 
d="M464 648h-77l76 150h117zM424 550h-97l-44 87h-2l-44 -87h-98l90 152h106zM220.5 127q38.5 -24 95.5 -24q72 0 135 20l20 -103q-75 -30 -177 -30q-123 0 -192 66.5t-69 182.5q0 65 27.5 125t83 98t136.5 38q75 0 124 -34.5t71.5 -89.5t22.5 -120q0 -32 -5 -60h-315
q4 -45 42.5 -69zM337.5 368q-19.5 31 -66.5 31q-43 0 -66.5 -30.5t-27.5 -68.5h180q0 37 -19.5 68z" />
    <glyph glyph-name="uni1EC0" unicode="&#x1ec0;" horiz-adv-x="534" 
d="M504 788h-79l-117 113h131zM419 710h-98l-45 63h-2l-44 -63h-97l89 123h106zM219 285v-160h277v-125h-430v674h416v-125h-263v-140h248v-124h-248z" />
    <glyph glyph-name="uni1EC1" unicode="&#x1ec1;" horiz-adv-x="528" 
d="M502 648h-77l-106 151h114zM420 550h-97l-44 87h-2l-44 -87h-97l89 152h106zM220.5 127q38.5 -24 95.5 -24q72 0 135 20l20 -103q-75 -30 -177 -30q-123 0 -192 66.5t-69 182.5q0 65 27.5 125t83 98t136.5 38q75 0 124 -34.5t71.5 -89.5t22.5 -120q0 -32 -5 -60h-315
q4 -45 42.5 -69zM337.5 368q-19.5 31 -66.5 31q-43 0 -66.5 -30.5t-27.5 -68.5h180q0 37 -19.5 68z" />
    <glyph glyph-name="uni1EC2" unicode="&#x1ec2;" horiz-adv-x="534" 
d="M434 816q10 11 15 19.5t5 19.5q0 13 -8.5 21.5t-21.5 8.5q-23 0 -46 -36l-44 27q38 73 112 73q39 0 64.5 -22.5t25.5 -56.5q0 -21 -8 -34t-27 -32q-24 -22 -37 -46l-59 14q8 23 29 44zM422 710h-99l-44 63h-2l-44 -63h-97l89 123h106zM219 285v-160h277v-125h-430v674
h416v-125h-263v-140h248v-124h-248z" />
    <glyph glyph-name="uni1EC3" unicode="&#x1ec3;" horiz-adv-x="528" 
d="M420 690q11 13 15 19.5t4 17.5q0 13 -8 21t-20 8t-23.5 -10t-18.5 -23l-45 28q38 73 114 73q37 0 63.5 -23.5t26.5 -55.5q0 -23 -9 -37.5t-27 -31.5q-25 -25 -35 -43l-64 14q7 21 27 43zM416 550h-97l-44 87h-2l-45 -87h-97l90 152h106zM220.5 127q38.5 -24 95.5 -24
q72 0 135 20l20 -103q-75 -30 -177 -30q-123 0 -192 66.5t-69 182.5q0 65 27.5 125t83 98t136.5 38q75 0 124 -34.5t71.5 -89.5t22.5 -120q0 -32 -5 -60h-315q4 -45 42.5 -69zM337.5 368q-19.5 31 -66.5 31q-43 0 -66.5 -30.5t-27.5 -68.5h180q0 37 -19.5 68z" />
    <glyph glyph-name="uni1EC4" unicode="&#x1ec4;" horiz-adv-x="534" 
d="M172 931.5q22 30.5 61 30.5q29 0 64 -20q4 -2 18.5 -9.5t24.5 -7.5q12 0 18 8.5t8 31.5h70q4 -115 -82 -115q-19 0 -32.5 5t-35.5 17q-11 6 -21 10t-18 4q-10 0 -16.5 -10t-8.5 -27h-71q-1 52 21 82.5zM447 710h-107l-50 62h-2l-50 -62h-106l100 123h114zM219 285v-160
h277v-125h-430v674h416v-125h-263v-140h248v-124h-248z" />
    <glyph glyph-name="uni1EC5" unicode="&#x1ec5;" horiz-adv-x="528" 
d="M157 779.5q22 30.5 61 30.5q29 0 64 -20q4 -2 18.5 -9t24.5 -7q13 0 19 8t7 31h70q4 -115 -82 -115q-18 0 -31.5 5t-35.5 17q-12 6 -21.5 10t-18.5 4q-21 0 -24 -37h-72q-1 52 21 82.5zM422 550h-98l-48 71h-2l-48 -71h-99l95 130h106zM220.5 127q38.5 -24 95.5 -24
q72 0 135 20l20 -103q-75 -30 -177 -30q-123 0 -192 66.5t-69 182.5q0 65 27.5 125t83 98t136.5 38q75 0 124 -34.5t71.5 -89.5t22.5 -120q0 -32 -5 -60h-315q4 -45 42.5 -69zM337.5 368q-19.5 31 -66.5 31q-43 0 -66.5 -30.5t-27.5 -68.5h180q0 37 -19.5 68z" />
    <glyph glyph-name="uni1EC6" unicode="&#x1ec6;" horiz-adv-x="534" 
d="M437 710h-107l-51 62h-2l-50 -62h-106l100 123h114zM219 285v-160h277v-125h-430v674h416v-125h-263v-140h248v-124h-248zM239.5 -197q-20.5 20 -20.5 48q0 29 20 49t50 20q28 0 47.5 -20t19.5 -49q0 -27 -19.5 -47.5t-47.5 -20.5q-29 0 -49.5 20z" />
    <glyph glyph-name="uni1EC7" unicode="&#x1ec7;" horiz-adv-x="528" 
d="M414 550h-99l-50 87h-2l-50 -87h-100l100 152h102zM220.5 127q38.5 -24 95.5 -24q72 0 135 20l20 -103q-75 -30 -177 -30q-123 0 -192 66.5t-69 182.5q0 65 27.5 125t83 98t136.5 38q75 0 124 -34.5t71.5 -89.5t22.5 -120q0 -32 -5 -60h-315q4 -45 42.5 -69zM337.5 368
q-19.5 31 -66.5 31q-43 0 -66.5 -30.5t-27.5 -68.5h180q0 37 -19.5 68zM313.5 -100q19.5 -20 19.5 -51q0 -29 -19.5 -49.5t-49.5 -20.5t-50 20.5t-20 49.5q0 31 20.5 51t50.5 20q29 0 48.5 -20z" />
    <glyph glyph-name="uni1EC8" unicode="&#x1ec8;" horiz-adv-x="285" 
d="M119.5 745.5q6.5 9.5 17.5 21.5q10 11 15 19.5t5 20.5q0 13 -8.5 21.5t-21.5 8.5q-23 0 -45 -34l-48 29q41 79 122 79q40 0 68.5 -25t28.5 -60q0 -24 -9 -39t-29 -36q-26 -24 -37 -45l-70 15q5 15 11.5 24.5zM219 0h-153v674h153v-674z" />
    <glyph glyph-name="uni1EC9" unicode="&#x1ec9;" horiz-adv-x="274" 
d="M101.5 569.5q7.5 11.5 19.5 25.5q12 13 18 23t6 23q0 15 -9 24t-21 9q-13 0 -23.5 -9.5t-20.5 -24.5l-49 30q18 37 48 58t73 21q42 0 70.5 -24.5t28.5 -62.5q0 -27 -11 -45.5t-33 -42.5q-27 -29 -35 -47l-73 16q4 15 11.5 26.5zM61 489h152v-489h-152v489z" />
    <glyph glyph-name="uni1ECA" unicode="&#x1eca;" horiz-adv-x="285" 
d="M219 0h-153v674h153v-674zM94.5 -196.5q-20.5 20.5 -20.5 47.5q0 29 20.5 49t50.5 20q28 0 47 -20t19 -49q0 -27 -19.5 -47.5t-47.5 -20.5q-29 0 -49.5 20.5z" />
    <glyph glyph-name="uni1ECB" unicode="&#x1ecb;" horiz-adv-x="274" 
d="M195 680.5q22 -21.5 23 -55.5q0 -32 -22.5 -54t-59.5 -22q-35 0 -57.5 22t-21.5 54q-1 33 21.5 55t58.5 22t58 -21.5zM61 489h152v-489h-152v489zM187.5 -100q19.5 -20 19.5 -51q0 -29 -19.5 -49.5t-49.5 -20.5t-50.5 20.5t-20.5 49.5q0 31 20.5 51t51.5 20
q29 0 48.5 -20z" />
    <glyph glyph-name="uni1ECC" unicode="&#x1ecc;" horiz-adv-x="717" 
d="M535.5 639.5q72.5 -45.5 110 -123t37.5 -172.5q0 -109 -41.5 -189t-116.5 -123t-173 -43q-97 0 -169 45t-110 123t-38 175q0 101 40.5 181t115 126t172.5 46q100 0 172.5 -45.5zM239.5 500q-43.5 -64 -43.5 -165q0 -100 44.5 -162.5t119.5 -62.5t118.5 64t43.5 165
q0 62 -19 113t-56 81.5t-88 30.5q-76 0 -119.5 -64zM310.5 -196.5q-20.5 20.5 -20.5 47.5q0 29 20.5 49t50.5 20q28 0 47 -20t19 -49q0 -27 -19.5 -47.5t-46.5 -20.5q-30 0 -50.5 20.5z" />
    <glyph glyph-name="uni1ECD" unicode="&#x1ecd;" horiz-adv-x="577" 
d="M425 468.5q57 -31.5 88 -88.5t31 -130q0 -86 -36 -144.5t-95 -87.5t-127 -29q-72 0 -129.5 30.5t-90.5 87.5t-33 134q0 78 32.5 136.5t91.5 90.5t137 32q74 0 131 -31.5zM214.5 349q-24.5 -43 -24.5 -104q0 -65 26.5 -106t73.5 -41q44 0 70.5 40.5t26.5 106.5
q0 61 -24.5 104t-72.5 43q-51 0 -75.5 -43zM338.5 -100q19.5 -20 19.5 -51q0 -29 -19.5 -49.5t-49.5 -20.5t-50.5 20.5t-20.5 49.5q0 31 20.5 51t51.5 20q29 0 48.5 -20z" />
    <glyph glyph-name="uni1ECE" unicode="&#x1ece;" horiz-adv-x="717" 
d="M335.5 745.5q6.5 9.5 17.5 21.5q10 11 15 19.5t5 20.5q0 13 -8.5 21.5t-21.5 8.5q-21 0 -45 -34l-48 29q41 79 122 79q41 0 69.5 -25t28.5 -60q0 -24 -9.5 -39.5t-29.5 -34.5q-27 -27 -37 -46l-70 15q5 15 11.5 24.5zM535.5 639.5q72.5 -45.5 110 -123t37.5 -172.5
q0 -109 -41.5 -189t-116.5 -123t-173 -43q-97 0 -169 45t-110 123t-38 175q0 101 40.5 181t115 126t172.5 46q100 0 172.5 -45.5zM239.5 500q-43.5 -64 -43.5 -165q0 -100 44.5 -162.5t119.5 -62.5t118.5 64t43.5 165q0 62 -19 113t-56 81.5t-88 30.5q-76 0 -119.5 -64z" />
    <glyph glyph-name="uni1ECF" unicode="&#x1ecf;" horiz-adv-x="577" 
d="M253.5 570.5q7.5 11.5 19.5 24.5q12 14 17.5 23.5t5.5 22.5q0 15 -9 24t-21 9q-23 0 -43 -34l-50 30q18 37 48.5 58t72.5 21t71 -24.5t29 -62.5q0 -27 -11 -45.5t-33 -42.5q-27 -29 -35 -47l-73 16q4 16 11.5 27.5zM425 468.5q57 -31.5 88 -88.5t31 -130
q0 -86 -36 -144.5t-95 -87.5t-127 -29q-72 0 -129.5 30.5t-90.5 87.5t-33 134q0 78 32.5 136.5t91.5 90.5t137 32q74 0 131 -31.5zM214.5 349q-24.5 -43 -24.5 -104q0 -65 26.5 -106t73.5 -41q44 0 70.5 40.5t26.5 106.5q0 61 -24.5 104t-72.5 43q-51 0 -75.5 -43z" />
    <glyph glyph-name="uni1ED0" unicode="&#x1ed0;" horiz-adv-x="717" 
d="M532 801h-72l76 114h130zM510 710h-98l-44 63h-2l-44 -63h-98l90 123h106zM535.5 639.5q72.5 -45.5 110 -123t37.5 -172.5q0 -109 -41.5 -189t-116.5 -123t-173 -43q-97 0 -169 45t-110 123t-38 175q0 101 40.5 181t115 126t172.5 46q100 0 172.5 -45.5zM239.5 500
q-43.5 -64 -43.5 -165q0 -100 44.5 -162.5t119.5 -62.5t118.5 64t43.5 165q0 62 -19 113t-56 81.5t-88 30.5q-76 0 -119.5 -64z" />
    <glyph glyph-name="uni1ED1" unicode="&#x1ed1;" horiz-adv-x="577" 
d="M475 648h-77l76 150h117zM435 550h-97l-44 87h-2l-44 -87h-98l90 152h106zM425 468.5q57 -31.5 88 -88.5t31 -130q0 -86 -36 -144.5t-95 -87.5t-127 -29q-72 0 -129.5 30.5t-90.5 87.5t-33 134q0 78 32.5 136.5t91.5 90.5t137 32q74 0 131 -31.5zM214.5 349
q-24.5 -43 -24.5 -104q0 -65 26.5 -106t73.5 -41q44 0 70.5 40.5t26.5 106.5q0 61 -24.5 104t-72.5 43q-51 0 -75.5 -43z" />
    <glyph glyph-name="uni1ED2" unicode="&#x1ed2;" horiz-adv-x="717" 
d="M591 788h-79l-117 113h131zM506 710h-98l-44 63h-2l-45 -63h-97l90 123h106zM535.5 639.5q72.5 -45.5 110 -123t37.5 -172.5q0 -109 -41.5 -189t-116.5 -123t-173 -43q-97 0 -169 45t-110 123t-38 175q0 101 40.5 181t115 126t172.5 46q100 0 172.5 -45.5zM239.5 500
q-43.5 -64 -43.5 -165q0 -100 44.5 -162.5t119.5 -62.5t118.5 64t43.5 165q0 62 -19 113t-56 81.5t-88 30.5q-76 0 -119.5 -64z" />
    <glyph glyph-name="uni1ED3" unicode="&#x1ed3;" horiz-adv-x="577" 
d="M518 648h-77l-106 151h114zM437 550h-97l-45 87h-2l-44 -87h-97l89 152h106zM425 468.5q57 -31.5 88 -88.5t31 -130q0 -86 -36 -144.5t-95 -87.5t-127 -29q-72 0 -129.5 30.5t-90.5 87.5t-33 134q0 78 32.5 136.5t91.5 90.5t137 32q74 0 131 -31.5zM214.5 349
q-24.5 -43 -24.5 -104q0 -65 26.5 -106t73.5 -41q44 0 70.5 40.5t26.5 106.5q0 61 -24.5 104t-72.5 43q-51 0 -75.5 -43z" />
    <glyph glyph-name="uni1ED4" unicode="&#x1ed4;" horiz-adv-x="717" 
d="M525 816q12 14 16.5 21t4.5 18q0 13 -9 21.5t-21 8.5q-26 0 -46 -36l-45 27q38 73 112 73q39 0 64.5 -22.5t25.5 -56.5q0 -22 -8.5 -35.5t-26.5 -30.5q-26 -26 -37 -46l-59 14q7 20 29 44zM513 710h-98l-44 63h-2l-44 -63h-98l90 123h106zM535.5 639.5
q72.5 -45.5 110 -123t37.5 -172.5q0 -109 -41.5 -189t-116.5 -123t-173 -43q-97 0 -169 45t-110 123t-38 175q0 101 40.5 181t115 126t172.5 46q100 0 172.5 -45.5zM239.5 500q-43.5 -64 -43.5 -165q0 -100 44.5 -162.5t119.5 -62.5t118.5 64t43.5 165q0 62 -19 113
t-56 81.5t-88 30.5q-76 0 -119.5 -64z" />
    <glyph glyph-name="uni1ED5" unicode="&#x1ed5;" horiz-adv-x="577" 
d="M436 690q11 13 15 19.5t4 17.5q0 13 -8 21t-20 8t-23.5 -10t-18.5 -23l-45 28q38 73 114 73q37 0 63.5 -23.5t26.5 -55.5q0 -23 -9 -37.5t-27 -31.5q-25 -25 -35 -43l-64 14q7 21 27 43zM432 550h-97l-44 87h-2l-45 -87h-97l90 152h106zM425 468.5q57 -31.5 88 -88.5
t31 -130q0 -86 -36 -144.5t-95 -87.5t-127 -29q-72 0 -129.5 30.5t-90.5 87.5t-33 134q0 78 32.5 136.5t91.5 90.5t137 32q74 0 131 -31.5zM214.5 349q-24.5 -43 -24.5 -104q0 -65 26.5 -106t73.5 -41q44 0 70.5 40.5t26.5 106.5q0 61 -24.5 104t-72.5 43q-51 0 -75.5 -43z
" />
    <glyph glyph-name="uni1ED6" unicode="&#x1ed6;" horiz-adv-x="717" 
d="M244.5 931.5q22.5 30.5 60.5 30.5q29 0 64 -20l20 -10t24 -7q12 0 18 8.5t8 31.5h69q4 -115 -82 -115q-18 0 -31.5 5t-35.5 17q-12 6 -21.5 10t-18.5 4q-21 0 -24 -37h-72q-1 52 21.5 82.5zM519 710h-107l-50 62h-2l-50 -62h-106l100 123h114zM535.5 639.5
q72.5 -45.5 110 -123t37.5 -172.5q0 -109 -41.5 -189t-116.5 -123t-173 -43q-97 0 -169 45t-110 123t-38 175q0 101 40.5 181t115 126t172.5 46q100 0 172.5 -45.5zM239.5 500q-43.5 -64 -43.5 -165q0 -100 44.5 -162.5t119.5 -62.5t118.5 64t43.5 165q0 62 -19 113
t-56 81.5t-88 30.5q-76 0 -119.5 -64z" />
    </font>
</defs>
</svg>
